  0
SECTION
  2
HEADER
  9
$ACADVER
  1
AC1032
  9
$ACADMAINTVER
 90
      176
  9
$DWGCODEPAGE
  3
ANSI_1252
  9
$LASTSAVEDBY
  1
xmoharchen
  9
$REQUIREDVERSIONS
160
                 0
  9
$INSBASE
 10
0.0
 20
0.0
 30
0.0
  9
$EXTMIN
 10
53.69955441397316
 20
76.13639541669265
 30
0.0
  9
$EXTMAX
 10
82.47160285796921
 20
93.11075693432323
 30
0.0
  9
$LIMMIN
 10
0.0
 20
0.0
  9
$LIMMAX
 10
12.0
 20
9.0
  9
$ORTHOMODE
 70
     1
  9
$REGENMODE
 70
     1
  9
$FILLMODE
 70
     1
  9
$QTEXTMODE
 70
     0
  9
$MIRRTEXT
 70
     0
  9
$LTSCALE
 40
1.0
  9
$ATTMODE
 70
     1
  9
$TEXTSIZE
 40
0.2
  9
$TRACEWID
 40
0.05
  9
$TEXTSTYLE
  7
Standard
  9
$CLAYER
  8
0
  9
$CELTYPE
  6
ByLayer
  9
$CECOLOR
 62
   256
  9
$CELTSCALE
 40
1.0
  9
$DISPSILH
 70
     0
  9
$DIMSCALE
 40
1.0
  9
$DIMASZ
 40
0.1
  9
$DIMEXO
 40
0.0
  9
$DIMDLI
 40
0.1
  9
$DIMRND
 40
0.0
  9
$DIMDLE
 40
0.0
  9
$DIMEXE
 40
0.1
  9
$DIMTP
 40
0.0
  9
$DIMTM
 40
0.0
  9
$DIMTXT
 40
0.1
  9
$DIMCEN
 40
0.09
  9
$DIMTSZ
 40
0.0
  9
$DIMTOL
 70
     0
  9
$DIMLIM
 70
     0
  9
$DIMTIH
 70
     1
  9
$DIMTOH
 70
     1
  9
$DIMSE1
 70
     0
  9
$DIMSE2
 70
     0
  9
$DIMTAD
 70
     0
  9
$DIMZIN
 70
     0
  9
$DIMBLK
  1

  9
$DIMASO
 70
     1
  9
$DIMSHO
 70
     1
  9
$DIMPOST
  1

  9
$DIMAPOST
  1

  9
$DIMALT
 70
     0
  9
$DIMALTD
 70
     2
  9
$DIMALTF
 40
25.4
  9
$DIMLFAC
 40
1.0
  9
$DIMTOFL
 70
     0
  9
$DIMTVP
 40
0.0
  9
$DIMTIX
 70
     0
  9
$DIMSOXD
 70
     0
  9
$DIMSAH
 70
     0
  9
$DIMBLK1
  1

  9
$DIMBLK2
  1

  9
$DIMSTYLE
  2
Bing_1
  9
$DIMCLRD
 70
     0
  9
$DIMCLRE
 70
     0
  9
$DIMCLRT
 70
     0
  9
$DIMTFAC
 40
1.0
  9
$DIMGAP
 40
0.1
  9
$DIMJUST
 70
     0
  9
$DIMSD1
 70
     0
  9
$DIMSD2
 70
     0
  9
$DIMTOLJ
 70
     1
  9
$DIMTZIN
 70
     0
  9
$DIMALTZ
 70
     0
  9
$DIMALTTZ
 70
     0
  9
$DIMUPT
 70
     0
  9
$DIMDEC
 70
     2
  9
$DIMTDEC
 70
     2
  9
$DIMALTU
 70
     2
  9
$DIMALTTD
 70
     2
  9
$DIMTXSTY
  7
Standard
  9
$DIMAUNIT
 70
     0
  9
$DIMADEC
 70
     0
  9
$DIMALTRND
 40
0.0
  9
$DIMAZIN
 70
     0
  9
$DIMDSEP
 70
    46
  9
$DIMATFIT
 70
     3
  9
$DIMFRAC
 70
     0
  9
$DIMLDRBLK
  1

  9
$DIMLUNIT
 70
     2
  9
$DIMLWD
 70
    -2
  9
$DIMLWE
 70
    -2
  9
$DIMTMOVE
 70
     0
  9
$DIMFXL
 40
1.0
  9
$DIMFXLON
 70
     1
  9
$DIMJOGANG
 40
0.7853981633974483
  9
$DIMTFILL
 70
     0
  9
$DIMTFILLCLR
 70
     0
  9
$DIMARCSYM
 70
     0
  9
$DIMLTYPE
  6

  9
$DIMLTEX1
  6

  9
$DIMLTEX2
  6

  9
$DIMTXTDIRECTION
 70
     0
  9
$LUNITS
 70
     2
  9
$LUPREC
 70
     8
  9
$SKETCHINC
 40
0.1
  9
$FILLETRAD
 40
0.0
  9
$AUNITS
 70
     0
  9
$AUPREC
 70
     0
  9
$MENU
  1
.
  9
$ELEVATION
 40
0.0
  9
$PELEVATION
 40
0.0
  9
$THICKNESS
 40
0.0
  9
$LIMCHECK
 70
     0
  9
$CHAMFERA
 40
0.0
  9
$CHAMFERB
 40
0.0
  9
$CHAMFERC
 40
0.0
  9
$CHAMFERD
 40
0.0
  9
$SKPOLY
 70
     0
  9
$TDCREATE
 40
2459662.686388889
  9
$TDUCREATE
 40
2459662.853055555
  9
$TDUPDATE
 40
2459664.516006944
  9
$TDUUPDATE
 40
2459664.682673611
  9
$TDINDWG
 40
0.2134143519
  9
$TDUSRTIMER
 40
0.2134143519
  9
$USRTIMER
 70
     1
  9
$ANGBASE
 50
0.0
  9
$ANGDIR
 70
     0
  9
$PDMODE
 70
     0
  9
$PDSIZE
 40
0.0
  9
$PLINEWID
 40
0.0
  9
$SPLFRAME
 70
     0
  9
$SPLINETYPE
 70
     6
  9
$SPLINESEGS
 70
     8
  9
$HANDSEED
  5
187E
  9
$SURFTAB1
 70
     6
  9
$SURFTAB2
 70
     6
  9
$SURFTYPE
 70
     6
  9
$SURFU
 70
     6
  9
$SURFV
 70
     6
  9
$UCSBASE
  2

  9
$UCSNAME
  2

  9
$UCSORG
 10
0.0
 20
0.0
 30
0.0
  9
$UCSXDIR
 10
1.0
 20
0.0
 30
0.0
  9
$UCSYDIR
 10
0.0
 20
1.0
 30
0.0
  9
$UCSORTHOREF
  2

  9
$UCSORTHOVIEW
 70
     0
  9
$UCSORGTOP
 10
0.0
 20
0.0
 30
0.0
  9
$UCSORGBOTTOM
 10
0.0
 20
0.0
 30
0.0
  9
$UCSORGLEFT
 10
0.0
 20
0.0
 30
0.0
  9
$UCSORGRIGHT
 10
0.0
 20
0.0
 30
0.0
  9
$UCSORGFRONT
 10
0.0
 20
0.0
 30
0.0
  9
$UCSORGBACK
 10
0.0
 20
0.0
 30
0.0
  9
$PUCSBASE
  2

  9
$PUCSNAME
  2

  9
$PUCSORG
 10
0.0
 20
0.0
 30
0.0
  9
$PUCSXDIR
 10
1.0
 20
0.0
 30
0.0
  9
$PUCSYDIR
 10
0.0
 20
1.0
 30
0.0
  9
$PUCSORTHOREF
  2

  9
$PUCSORTHOVIEW
 70
     0
  9
$PUCSORGTOP
 10
0.0
 20
0.0
 30
0.0
  9
$PUCSORGBOTTOM
 10
0.0
 20
0.0
 30
0.0
  9
$PUCSORGLEFT
 10
0.0
 20
0.0
 30
0.0
  9
$PUCSORGRIGHT
 10
0.0
 20
0.0
 30
0.0
  9
$PUCSORGFRONT
 10
0.0
 20
0.0
 30
0.0
  9
$PUCSORGBACK
 10
0.0
 20
0.0
 30
0.0
  9
$USERI1
 70
     0
  9
$USERI2
 70
     0
  9
$USERI3
 70
     0
  9
$USERI4
 70
     0
  9
$USERI5
 70
     0
  9
$USERR1
 40
0.1
  9
$USERR2
 40
0.1
  9
$USERR3
 40
0.1
  9
$USERR4
 40
0.0
  9
$USERR5
 40
0.0
  9
$WORLDVIEW
 70
     1
  9
$SHADEDGE
 70
     3
  9
$SHADEDIF
 70
    70
  9
$TILEMODE
 70
     1
  9
$MAXACTVP
 70
    64
  9
$PINSBASE
 10
0.0
 20
0.0
 30
0.0
  9
$PLIMCHECK
 70
     0
  9
$PEXTMIN
 10
0.0
 20
0.0
 30
0.0
  9
$PEXTMAX
 10
0.0
 20
0.0
 30
0.0
  9
$PLIMMIN
 10
0.0
 20
0.0
  9
$PLIMMAX
 10
12.0
 20
9.0
  9
$UNITMODE
 70
     0
  9
$VISRETAIN
 70
     1
  9
$PLINEGEN
 70
     0
  9
$PSLTSCALE
 70
     1
  9
$TREEDEPTH
 70
  3020
  9
$CMLSTYLE
  2
Standard
  9
$CMLJUST
 70
     0
  9
$CMLSCALE
 40
1.0
  9
$PROXYGRAPHICS
 70
     1
  9
$MEASUREMENT
 70
     0
  9
$CELWEIGHT
370
    -1
  9
$ENDCAPS
280
     0
  9
$JOINSTYLE
280
     0
  9
$LWDISPLAY
290
     0
  9
$INSUNITS
 70
     4
  9
$HYPERLINKBASE
  1

  9
$STYLESHEET
  1

  9
$XEDIT
290
     1
  9
$CEPSNTYPE
380
     0
  9
$PSTYLEMODE
290
     1
  9
$FINGERPRINTGUID
  2
{030B64D7-0460-A149-A767-84EDBE69AE39}
  9
$VERSIONGUID
  2
{89B5567E-856C-2046-A78C-B234BB3B808E}
  9
$EXTNAMES
290
     1
  9
$PSVPSCALE
 40
0.0
  9
$OLESTARTUP
290
     0
  9
$SORTENTS
280
   127
  9
$INDEXCTL
280
     0
  9
$HIDETEXT
280
     1
  9
$XCLIPFRAME
280
     2
  9
$HALOGAP
280
     0
  9
$OBSCOLOR
 70
   257
  9
$OBSLTYPE
280
     0
  9
$INTERSECTIONDISPLAY
280
     0
  9
$INTERSECTIONCOLOR
 70
   257
  9
$DIMASSOC
280
     2
  9
$PROJECTNAME
  1

  9
$CAMERADISPLAY
290
     0
  9
$LENSLENGTH
 40
50.0
  9
$CAMERAHEIGHT
 40
0.0
  9
$STEPSPERSEC
 40
2.0
  9
$STEPSIZE
 40
6.0
  9
$3DDWFPREC
 40
2.0
  9
$PSOLWIDTH
 40
0.25
  9
$PSOLHEIGHT
 40
4.0
  9
$LOFTANG1
 40
1.570796326794896
  9
$LOFTANG2
 40
1.570796326794896
  9
$LOFTMAG1
 40
0.0
  9
$LOFTMAG2
 40
0.0
  9
$LOFTPARAM
 70
     7
  9
$LOFTNORMALS
280
     1
  9
$LATITUDE
 40
37.795
  9
$LONGITUDE
 40
-122.394
  9
$NORTHDIRECTION
 40
0.0
  9
$TIMEZONE
 70
 -8000
  9
$LIGHTGLYPHDISPLAY
280
     1
  9
$TILEMODELIGHTSYNCH
280
     1
  9
$CMATERIAL
347
96
  9
$SOLIDHIST
280
     0
  9
$SHOWHIST
280
     1
  9
$DWFFRAME
280
     2
  9
$DGNFRAME
280
     0
  9
$REALWORLDSCALE
290
     1
  9
$INTERFERECOLOR
 62
     1
  9
$INTERFEREOBJVS
345
A3
  9
$INTERFEREVPVS
346
A0
  9
$CSHADOW
280
     0
  9
$SHADOWPLANELOCATION
 40
0.0
  0
ENDSEC
  0
SECTION
  2
CLASSES
  0
CLASS
  1
ACDBDICTIONARYWDFLT
  2
AcDbDictionaryWithDefault
  3
ObjectDBX Classes
 90
        0
 91
        1
280
     0
281
     0
  0
CLASS
  1
DICTIONARYVAR
  2
AcDbDictionaryVar
  3
ObjectDBX Classes
 90
        0
 91
       11
280
     0
281
     0
  0
CLASS
  1
TABLESTYLE
  2
AcDbTableStyle
  3
ObjectDBX Classes
 90
     4095
 91
        1
280
     0
281
     0
  0
CLASS
  1
MATERIAL
  2
AcDbMaterial
  3
ObjectDBX Classes
 90
     1153
 91
        3
280
     0
281
     0
  0
CLASS
  1
VISUALSTYLE
  2
AcDbVisualStyle
  3
ObjectDBX Classes
 90
     4095
 91
       24
280
     0
281
     0
  0
CLASS
  1
SCALE
  2
AcDbScale
  3
ObjectDBX Classes
 90
     1153
 91
       33
280
     0
281
     0
  0
CLASS
  1
MLEADERSTYLE
  2
AcDbMLeaderStyle
  3
ACDB_MLEADERSTYLE_CLASS
 90
     4095
 91
        3
280
     0
281
     0
  0
CLASS
  1
CELLSTYLEMAP
  2
AcDbCellStyleMap
  3
ObjectDBX Classes
 90
     1152
 91
        2
280
     0
281
     0
  0
CLASS
  1
EXACXREFPANELOBJECT
  2
ExAcXREFPanelObject
  3
EXAC_ESW
 90
     1025
 91
        0
280
     0
281
     0
  0
CLASS
  1
NPOCOLLECTION
  2
AcDbImpNonPersistentObjectsCollection
  3
ObjectDBX Classes
 90
     1153
 91
        0
280
     0
281
     0
  0
CLASS
  1
LAYER_INDEX
  2
AcDbLayerIndex
  3
ObjectDBX Classes
 90
        0
 91
        0
280
     0
281
     0
  0
CLASS
  1
SPATIAL_INDEX
  2
AcDbSpatialIndex
  3
ObjectDBX Classes
 90
        0
 91
        0
280
     0
281
     0
  0
CLASS
  1
IDBUFFER
  2
AcDbIdBuffer
  3
ObjectDBX Classes
 90
        0
 91
        0
280
     0
281
     0
  0
CLASS
  1
ACDBSECTIONVIEWSTYLE
  2
AcDbSectionViewStyle
  3
ObjectDBX Classes
 90
     1025
 91
        1
280
     0
281
     0
  0
CLASS
  1
ACDBDETAILVIEWSTYLE
  2
AcDbDetailViewStyle
  3
ObjectDBX Classes
 90
     1025
 91
        1
280
     0
281
     0
  0
CLASS
  1
SORTENTSTABLE
  2
AcDbSortentsTable
  3
ObjectDBX Classes
 90
        0
 91
        1
280
     0
281
     0
  0
CLASS
  1
DIMASSOC
  2
AcDbDimAssoc
  3
"AcDbDimAssoc|Product Desc:     AcDim ARX App For Dimension|Company:          Autodesk, Inc.|WEB Address:      www.autodesk.com"
 90
        0
 91
       28
280
     0
281
     0
  0
CLASS
  1
MULTILEADER
  2
AcDbMLeader
  3
ACDB_MLEADER_CLASS
 90
     1025
 91
       13
280
     0
281
     1
  0
ENDSEC
  0
SECTION
  2
TABLES
  0
TABLE
  2
VPORT
  5
8
330
0
100
AcDbSymbolTable
 70
     1
  0
VPORT
  5
94
330
8
100
AcDbSymbolTableRecord
100
AcDbViewportTableRecord
  2
*Active
 70
     0
 10
0.0
 20
0.0
 11
1.0
 21
1.0
 12
62.32453425945306
 22
82.03252771589584
 13
0.0
 23
0.0
 14
0.5
 24
0.5
 15
0.5
 25
0.5
 16
0.0
 26
0.0
 36
1.0
 17
0.0
 27
0.0
 37
0.0
 40
31.1584068079122
 41
2.292712066905615
 42
50.0
 43
0.0
 44
0.0
 50
0.0
 51
0.0
 71
     0
 72
  4000
 73
     1
 74
     3
 75
     0
 76
     0
 77
     0
 78
     0
281
     0
 65
     1
110
0.0
120
0.0
130
0.0
111
1.0
121
0.0
131
0.0
112
0.0
122
1.0
132
0.0
 79
     0
146
0.0
348
9F
 60
     3
 61
     5
292
     1
282
     1
141
0.0
142
0.0
 63
   250
421
  3355443
1001
ACAD_NAV_VCDISPLAY
1070
     3
  0
ENDTAB
  0
TABLE
  2
LTYPE
  5
5
330
0
100
AcDbSymbolTable
 70
     3
  0
LTYPE
  5
14
330
5
100
AcDbSymbolTableRecord
100
AcDbLinetypeTableRecord
  2
ByBlock
 70
     0
  3

 72
    65
 73
     0
 40
0.0
  0
LTYPE
  5
15
330
5
100
AcDbSymbolTableRecord
100
AcDbLinetypeTableRecord
  2
ByLayer
 70
     0
  3

 72
    65
 73
     0
 40
0.0
  0
LTYPE
  5
16
330
5
100
AcDbSymbolTableRecord
100
AcDbLinetypeTableRecord
  2
Continuous
 70
     0
  3
Solid line
 72
    65
 73
     0
 40
0.0
  0
LTYPE
  5
5A7
330
5
100
AcDbSymbolTableRecord
100
AcDbLinetypeTableRecord
  2
ACAD_ISO02W100
 70
     0
  3
ISO dash __ __ __ __ __ __ __ __ __ __ __ __ __
 72
    65
 73
     2
 40
15.0
 49
12.0
 74
     0
 49
-3.0
 74
     0
  0
ENDTAB
  0
TABLE
  2
LAYER
  5
2
102
{ACAD_XDICTIONARY
360
18E
102
}
330
0
100
AcDbSymbolTable
 70
    16
  0
LAYER
  5
10
102
{ACAD_XDICTIONARY
360
E6
102
}
330
2
100
AcDbSymbolTableRecord
100
AcDbLayerTableRecord
  2
0
 70
     0
 62
     7
  6
Continuous
370
    -3
390
F
347
98
348
0
  0
LAYER
  5
22A
102
{ACAD_XDICTIONARY
360
22B
102
}
330
2
100
AcDbSymbolTableRecord
100
AcDbLayerTableRecord
  2
_designKeepOut
 70
     0
 62
   210
  6
Continuous
370
    -3
390
F
347
98
348
0
  0
LAYER
  5
22C
102
{ACAD_XDICTIONARY
360
22D
102
}
330
2
100
AcDbSymbolTableRecord
100
AcDbLayerTableRecord
  2
_part_outline
 70
     0
 62
   106
  6
Continuous
370
    -3
390
F
347
98
348
0
  0
LAYER
  5
22E
330
2
100
AcDbSymbolTableRecord
100
AcDbLayerTableRecord
  2
_ArrayFactor
 70
     0
 62
    10
  6
Continuous
370
    -3
390
F
347
98
348
0
1001
AcAecLayerStandard
1000

1000

  0
LAYER
  5
27B
330
2
100
AcDbSymbolTableRecord
100
AcDbLayerTableRecord
  2
Defpoints
 70
     0
 62
     7
  6
Continuous
290
     0
370
    -3
390
F
347
98
348
0
  0
LAYER
  5
487
330
2
100
AcDbSymbolTableRecord
100
AcDbLayerTableRecord
  2
Dimensions
 70
     0
 62
     7
  6
Continuous
370
    -3
390
F
347
98
348
0
1001
AcAecLayerStandard
1000

1000

  0
LAYER
  5
FFA
102
{ACAD_XDICTIONARY
360
FFB
102
}
330
2
100
AcDbSymbolTableRecord
100
AcDbLayerTableRecord
  2
M1-M3_PTH
 70
     0
 62
     6
  6
Continuous
370
    -3
390
F
347
98
348
0
  0
LAYER
  5
FFC
102
{ACAD_XDICTIONARY
360
FFD
102
}
330
2
100
AcDbSymbolTableRecord
100
AcDbLayerTableRecord
  2
M1_P
 70
     0
 62
   132
  6
Continuous
370
    -3
390
F
347
98
348
0
  0
LAYER
  5
FFF
102
{ACAD_XDICTIONARY
360
1000
102
}
330
2
100
AcDbSymbolTableRecord
100
AcDbLayerTableRecord
  2
M1-M3_NPTH
 70
     0
 62
    92
  6
Continuous
370
    -3
390
F
347
98
348
0
  0
LAYER
  5
1001
102
{ACAD_XDICTIONARY
360
1002
102
}
330
2
100
AcDbSymbolTableRecord
100
AcDbLayerTableRecord
  2
M2_P
 70
     0
 62
   191
  6
Continuous
370
    -3
390
F
347
98
348
0
  0
LAYER
  5
1003
102
{ACAD_XDICTIONARY
360
1004
102
}
330
2
100
AcDbSymbolTableRecord
100
AcDbLayerTableRecord
  2
M3_P
 70
     0
 62
     4
  6
Continuous
370
    -3
390
F
347
98
348
0
1001
AcAecLayerStandard
1000

1000

  0
LAYER
  5
1005
102
{ACAD_XDICTIONARY
360
1006
102
}
330
2
100
AcDbSymbolTableRecord
100
AcDbLayerTableRecord
  2
Board Outline
 70
     0
 62
     2
  6
Continuous
370
    -3
390
F
347
98
348
0
1001
AcAecLayerStandard
1000

1000

  0
LAYER
  5
1007
330
2
100
AcDbSymbolTableRecord
100
AcDbLayerTableRecord
  2
DielAll
 70
     0
 62
    11
  6
Continuous
370
    -3
390
F
347
98
348
0
  0
LAYER
  5
1008
330
2
100
AcDbSymbolTableRecord
100
AcDbLayerTableRecord
  2
LAM
 70
     0
 62
   202
  6
Continuous
370
    -3
390
F
347
98
348
0
  0
LAYER
  5
1009
330
2
100
AcDbSymbolTableRecord
100
AcDbLayerTableRecord
  2
edcopper
 70
     0
 62
    40
  6
Continuous
370
    -3
390
F
347
98
348
0
1001
AcAecLayerStandard
1000

1000

  0
LAYER
  5
1424
330
2
100
AcDbSymbolTableRecord
100
AcDbLayerTableRecord
  2
_Notes
 70
     0
 62
     7
  6
Continuous
370
    -3
390
F
347
98
348
0
1001
AcAecLayerStandard
1000

1000

1001
AcCmTransparency
1071
        0
  0
ENDTAB
  0
TABLE
  2
STYLE
  5
3
330
0
100
AcDbSymbolTable
 70
     4
  0
STYLE
  5
11
330
3
100
AcDbSymbolTableRecord
100
AcDbTextStyleTableRecord
  2
Standard
 70
     0
 40
0.0
 41
1.0
 50
0.0
 71
     0
 42
0.2
  3
arial.ttf
  4

1001
ACAD
1000
Arial
1071
       34
  0
STYLE
  5
DC
330
3
100
AcDbSymbolTableRecord
100
AcDbTextStyleTableRecord
  2
Annotative
 70
     0
 40
0.0
 41
1.0
 50
0.0
 71
     0
 42
0.2
  3
arial.ttf
  4

1001
AcadAnnotative
1000
AnnotativeData
1002
{
1070
     1
1070
     1
1002
}
1001
ACAD
1000
Arial
1071
       34
  0
STYLE
  5
FD8
330
3
100
AcDbSymbolTableRecord
100
AcDbTextStyleTableRecord
  2

 70
     1
 40
0.0
 41
1.0
 50
0.0
 71
     0
 42
0.2
  3
ltypeshp.shx
  4

  0
STYLE
  5
100A
330
3
100
AcDbSymbolTableRecord
100
AcDbTextStyleTableRecord
  2
RomanS
 70
     0
 40
0.0
 41
0.9
 50
0.0
 71
     0
 42
0.12
  3
romans.shx
  4

  0
ENDTAB
  0
TABLE
  2
VIEW
  5
6
330
0
100
AcDbSymbolTable
 70
     1
  0
ENDTAB
  0
TABLE
  2
UCS
  5
7
330
0
100
AcDbSymbolTable
 70
     0
  0
ENDTAB
  0
TABLE
  2
APPID
  5
9
330
0
100
AcDbSymbolTable
 70
    15
  0
APPID
  5
12
330
9
100
AcDbSymbolTableRecord
100
AcDbRegAppTableRecord
  2
ACAD
 70
     0
  0
APPID
  5
DD
330
9
100
AcDbSymbolTableRecord
100
AcDbRegAppTableRecord
  2
AcadAnnoPO
 70
     0
  0
APPID
  5
DE
330
9
100
AcDbSymbolTableRecord
100
AcDbRegAppTableRecord
  2
AcadAnnotative
 70
     0
  0
APPID
  5
DF
330
9
100
AcDbSymbolTableRecord
100
AcDbRegAppTableRecord
  2
ACAD_DSTYLE_DIMJAG
 70
     0
  0
APPID
  5
E0
330
9
100
AcDbSymbolTableRecord
100
AcDbRegAppTableRecord
  2
ACAD_DSTYLE_DIMTALN
 70
     0
  0
APPID
  5
107
330
9
100
AcDbSymbolTableRecord
100
AcDbRegAppTableRecord
  2
ACAD_MLEADERVER
 70
     0
  0
APPID
  5
1A6
330
9
100
AcDbSymbolTableRecord
100
AcDbRegAppTableRecord
  2
ACAD_NAV_VCDISPLAY
 70
     0
  0
APPID
  5
230
330
9
100
AcDbSymbolTableRecord
100
AcDbRegAppTableRecord
  2
AcAecLayerStandard
 70
     0
  0
APPID
  5
231
330
9
100
AcDbSymbolTableRecord
100
AcDbRegAppTableRecord
  2
ACAD_DSTYLE_DIMBREAK
 70
     0
  0
APPID
  5
25A
330
9
100
AcDbSymbolTableRecord
100
AcDbRegAppTableRecord
  2
ACAD_EXEMPT_FROM_CAD_STANDARDS
 70
     0
  0
APPID
  5
5AA
330
9
100
AcDbSymbolTableRecord
100
AcDbRegAppTableRecord
  2
ACAD_DSTYLE_DIMRADIAL_EXTENSION
 70
     0
  0
APPID
  5
5AB
330
9
100
AcDbSymbolTableRecord
100
AcDbRegAppTableRecord
  2
GradientColor1ACI
 70
     0
  0
APPID
  5
5AC
330
9
100
AcDbSymbolTableRecord
100
AcDbRegAppTableRecord
  2
GradientColor2ACI
 70
     0
  0
APPID
  5
100D
330
9
100
AcDbSymbolTableRecord
100
AcDbRegAppTableRecord
  2
ACAD_DSTYLE_DIMJOGGED_JOGANGLE_SYMBOL
 70
     0
  0
APPID
  5
1425
330
9
100
AcDbSymbolTableRecord
100
AcDbRegAppTableRecord
  2
AcCmTransparency
 70
     0
  0
ENDTAB
  0
TABLE
  2
DIMSTYLE
  5
A
330
0
100
AcDbSymbolTable
 70
     6
100
AcDbDimStyleTable
 71
     5
340
27C
340
100B
340
488
340
27
340
E1
  0
DIMSTYLE
105
27
102
{ACAD_REACTORS
330
EFF
102
}
330
A
100
AcDbSymbolTableRecord
100
AcDbDimStyleTableRecord
  2
Standard
 70
     0
340
11
  0
DIMSTYLE
105
E1
330
A
100
AcDbSymbolTableRecord
100
AcDbDimStyleTableRecord
  2
Annotative
 70
     0
 40
0.0
340
11
1001
AcadAnnotative
1000
AnnotativeData
1002
{
1070
     1
1070
     1
1002
}
1001
ACAD_DSTYLE_DIMJAG
1070
   388
1040
1.5
1001
ACAD_DSTYLE_DIMTALN
1070
   392
1070
     0
  0
DIMSTYLE
105
27C
102
{ACAD_REACTORS
330
31E
330
36C
330
3E6
330
436
330
EF9
330
682
330
67F
330
67C
330
679
330
66F
330
672
330
1545
330
1561
330
157D
330
1597
330
15B3
330
338
330
352
330
1741
330
175B
330
1775
102
}
330
A
100
AcDbSymbolTableRecord
100
AcDbDimStyleTableRecord
  2
Bing_1
 70
     0
 41
0.1
 42
0.0
 43
0.1
 44
0.1
140
0.1
147
0.1
271
     2
272
     2
290
     1
340
11
1001
ACAD_DSTYLE_DIMBREAK
1070
   391
1040
0.0
1001
ACAD_DSTYLE_DIMJAG
1070
   388
1040
1.5
1001
ACAD_DSTYLE_DIMTALN
1070
   392
1070
     0
  0
DIMSTYLE
105
488
330
A
100
AcDbSymbolTableRecord
100
AcDbDimStyleTableRecord
  2
Copy(2) of Standard
 70
     0
 41
0.12
140
0.12
340
11
1001
ACAD_DSTYLE_DIMBREAK
1070
   391
1040
0.125
1001
ACAD_DSTYLE_DIMJAG
1070
   388
1040
1.5
1001
ACAD_DSTYLE_DIMTALN
1070
   392
1070
     0
  0
DIMSTYLE
105
100B
330
A
100
AcDbSymbolTableRecord
100
AcDbDimStyleTableRecord
  2
Bing dimension
 70
     0
 41
0.08
 42
0.03
 43
0.001
 44
0.1
140
0.08
141
0.001
147
0.01
340
11
1001
ACAD_DSTYLE_DIMBREAK
1070
   391
1040
0.001
1001
ACAD_DSTYLE_DIMJAG
1070
   388
1040
1.5
1001
ACAD_DSTYLE_DIMTALN
1070
   392
1070
     0
  0
DIMSTYLE
105
100C
330
A
100
AcDbSymbolTableRecord
100
AcDbDimStyleTableRecord
  2
PRC_No_Tol
 70
     0
  3
\X
 44
0.06
 49
0.18
 78
     4
140
0.12
146
0.71
147
0.06
271
     3
272
     3
284
     4
340
100A
1001
ACAD_DSTYLE_DIMJOGGED_JOGANGLE_SYMBOL
1070
   384
1040
0.7853981633974483
1001
ACAD_DSTYLE_DIMJAG
1070
   388
1040
1.5
1001
ACAD_DSTYLE_DIMTALN
1070
   392
1070
     0
  0
ENDTAB
  0
TABLE
  2
BLOCK_RECORD
  5
1
330
0
100
AcDbSymbolTable
 70
    36
  0
BLOCK_RECORD
  5
1F
102
{ACAD_XDICTIONARY
360
15D
102
}
330
1
100
AcDbSymbolTableRecord
100
AcDbBlockTableRecord
  2
*Model_Space
340
22
 70
     0
280
     1
281
     0
  0
BLOCK_RECORD
  5
58
330
1
100
AcDbSymbolTableRecord
100
AcDbBlockTableRecord
  2
*Paper_Space
340
59
 70
     0
280
     1
281
     0
  0
BLOCK_RECORD
  5
5D
330
1
100
AcDbSymbolTableRecord
100
AcDbBlockTableRecord
  2
*Paper_Space0
340
5E
 70
     0
280
     1
281
     0
  0
BLOCK_RECORD
  5
31F
330
1
100
AcDbSymbolTableRecord
100
AcDbBlockTableRecord
  2
*D1
340
0
 70
     0
280
     1
281
     0
  0
BLOCK_RECORD
  5
339
330
1
100
AcDbSymbolTableRecord
100
AcDbBlockTableRecord
  2
*D2
340
0
 70
     0
280
     1
281
     0
  0
BLOCK_RECORD
  5
353
330
1
100
AcDbSymbolTableRecord
100
AcDbBlockTableRecord
  2
*D3
340
0
 70
     0
280
     1
281
     0
  0
BLOCK_RECORD
  5
36D
330
1
100
AcDbSymbolTableRecord
100
AcDbBlockTableRecord
  2
*D4
340
0
 70
     0
280
     1
281
     0
  0
BLOCK_RECORD
  5
3E7
330
1
100
AcDbSymbolTableRecord
100
AcDbBlockTableRecord
  2
*D7
340
0
 70
     0
280
     1
281
     0
  0
BLOCK_RECORD
  5
437
330
1
100
AcDbSymbolTableRecord
100
AcDbBlockTableRecord
  2
*D9
340
0
 70
     0
280
     1
281
     0
  0
BLOCK_RECORD
  5
689
330
1
100
AcDbSymbolTableRecord
100
AcDbBlockTableRecord
  2
*D10
340
0
 70
     0
280
     1
281
     0
  0
BLOCK_RECORD
  5
694
330
1
100
AcDbSymbolTableRecord
100
AcDbBlockTableRecord
  2
*D11
340
0
 70
     0
280
     1
281
     0
  0
BLOCK_RECORD
  5
6A1
330
1
100
AcDbSymbolTableRecord
100
AcDbBlockTableRecord
  2
*D12
340
0
 70
     0
280
     1
281
     0
  0
BLOCK_RECORD
  5
6AF
330
1
100
AcDbSymbolTableRecord
100
AcDbBlockTableRecord
  2
*D13
340
0
 70
     0
280
     1
281
     0
  0
BLOCK_RECORD
  5
767
330
1
100
AcDbSymbolTableRecord
100
AcDbBlockTableRecord
  2
*D15
340
0
 70
     0
280
     1
281
     0
  0
BLOCK_RECORD
  5
774
330
1
100
AcDbSymbolTableRecord
100
AcDbBlockTableRecord
  2
*D16
340
0
 70
     0
280
     1
281
     0
  0
BLOCK_RECORD
  5
F1F
330
1
100
AcDbSymbolTableRecord
100
AcDbBlockTableRecord
  2
*D20
340
0
 70
     0
280
     1
281
     0
  0
BLOCK_RECORD
  5
F39
330
1
100
AcDbSymbolTableRecord
100
AcDbBlockTableRecord
  2
*D22
340
0
 70
     0
280
     1
281
     0
  0
BLOCK_RECORD
  5
1546
330
1
100
AcDbSymbolTableRecord
100
AcDbBlockTableRecord
  2
*D25
340
0
 70
     0
280
     1
281
     0
  0
BLOCK_RECORD
  5
1562
330
1
100
AcDbSymbolTableRecord
100
AcDbBlockTableRecord
  2
*D26
340
0
 70
     0
280
     1
281
     0
  0
BLOCK_RECORD
  5
157E
330
1
100
AcDbSymbolTableRecord
100
AcDbBlockTableRecord
  2
*D27
340
0
 70
     0
280
     1
281
     0
  0
BLOCK_RECORD
  5
1598
330
1
100
AcDbSymbolTableRecord
100
AcDbBlockTableRecord
  2
*D28
340
0
 70
     0
280
     1
281
     0
  0
BLOCK_RECORD
  5
15B4
330
1
100
AcDbSymbolTableRecord
100
AcDbBlockTableRecord
  2
*D29
340
0
 70
     0
280
     1
281
     0
  0
BLOCK_RECORD
  5
1742
330
1
100
AcDbSymbolTableRecord
100
AcDbBlockTableRecord
  2
*D33
340
0
 70
     0
280
     1
281
     0
  0
BLOCK_RECORD
  5
175C
330
1
100
AcDbSymbolTableRecord
100
AcDbBlockTableRecord
  2
*D34
340
0
 70
     0
280
     1
281
     0
  0
BLOCK_RECORD
  5
1776
330
1
100
AcDbSymbolTableRecord
100
AcDbBlockTableRecord
  2
*D35
340
0
 70
     0
280
     1
281
     0
  0
ENDTAB
  0
ENDSEC
  0
SECTION
  2
BLOCKS
  0
BLOCK
  5
20
330
1F
100
AcDbEntity
  8
0
100
AcDbBlockBegin
  2
*Model_Space
 70
     0
 10
0.0
 20
0.0
 30
0.0
  3
*Model_Space
  1

  0
ENDBLK
  5
21
330
1F
100
AcDbEntity
  8
0
100
AcDbBlockEnd
  0
BLOCK
  5
5A
330
58
100
AcDbEntity
 67
     1
  8
0
100
AcDbBlockBegin
  2
*Paper_Space
 70
     0
 10
0.0
 20
0.0
 30
0.0
  3
*Paper_Space
  1

  0
ENDBLK
  5
5B
330
58
100
AcDbEntity
 67
     1
  8
0
100
AcDbBlockEnd
  0
BLOCK
  5
5F
330
5D
100
AcDbEntity
 67
     1
  8
0
100
AcDbBlockBegin
  2
*Paper_Space0
 70
     0
 10
0.0
 20
0.0
 30
0.0
  3
*Paper_Space0
  1

  0
ENDBLK
  5
60
330
5D
100
AcDbEntity
 67
     1
  8
0
100
AcDbBlockEnd
  0
BLOCK
  5
320
330
31F
100
AcDbEntity
  8
0
100
AcDbBlockBegin
  2
*D1
 70
     1
 10
0.0
 20
0.0
 30
0.0
  3
*D1
  1

  0
LINE
  5
1637
330
31F
100
AcDbEntity
  8
Dimensions
 62
     0
440
 16777216
370
    -2
100
AcDbLine
 10
57.83797803303468
 20
90.36520781365329
 30
0.0
 11
57.83797803303468
 21
90.87662433087757
 31
0.0
  0
LINE
  5
1638
330
31F
100
AcDbEntity
  8
Dimensions
 62
     0
440
 16777216
370
    -2
100
AcDbLine
 10
59.87607803303466
 20
90.36520781365329
 30
0.0
 11
59.87607803303466
 21
90.87662433087757
 31
0.0
  0
LINE
  5
1639
330
31F
100
AcDbEntity
  8
Dimensions
 62
     0
440
 16777216
370
    -2
100
AcDbLine
 10
57.93797803303469
 20
90.77662433087757
 30
0.0
 11
58.45218492252989
 21
90.77662433087757
 31
0.0
  0
LINE
  5
163A
330
31F
100
AcDbEntity
  8
Dimensions
 62
     0
440
 16777216
370
    -2
100
AcDbLine
 10
59.77607803303467
 20
90.77662433087757
 30
0.0
 11
59.26187114353946
 21
90.77662433087757
 31
0.0
  0
SOLID
  5
163B
330
31F
100
AcDbEntity
  8
Dimensions
 62
     0
440
 16777216
100
AcDbTrace
 10
57.93797803303469
 20
90.79329099754422
 30
0.0
 11
57.93797803303469
 21
90.75995766421087
 31
0.0
 12
57.83797803303468
 22
90.77662433087757
 32
0.0
 13
57.83797803303468
 23
90.77662433087757
 33
0.0
  0
SOLID
  5
163C
330
31F
100
AcDbEntity
  8
Dimensions
 62
     0
440
 16777216
100
AcDbTrace
 10
59.77607803303467
 20
90.79329099754422
 30
0.0
 11
59.77607803303467
 21
90.75995766421087
 31
0.0
 12
59.87607803303466
 22
90.77662433087757
 32
0.0
 13
59.87607803303466
 23
90.77662433087757
 33
0.0
  0
MTEXT
  5
163D
330
31F
100
AcDbEntity
  8
Dimensions
 62
     0
440
 16777216
100
AcDbMText
 10
58.85702803303468
 20
90.77662433087757
 30
0.0
 40
0.1
 41
0.0
 46
0.0
 71
     5
 72
     1
  1
\A1;2.04±0.10
 73
     1
 44
1.0
  0
POINT
  5
163E
330
31F
100
AcDbEntity
  8
Defpoints
 62
     0
440
 16777216
100
AcDbPoint
 10
57.83797803303468
 20
90.36520781365329
 30
0.0
  0
POINT
  5
163F
330
31F
100
AcDbEntity
  8
Defpoints
 62
     0
440
 16777216
100
AcDbPoint
 10
59.87607803303466
 20
90.36520781365329
 30
0.0
  0
POINT
  5
1640
330
31F
100
AcDbEntity
  8
Defpoints
 62
     0
440
 16777216
100
AcDbPoint
 10
59.87607803303466
 20
90.77662433087757
 30
0.0
  0
ENDBLK
  5
321
330
31F
100
AcDbEntity
  8
0
100
AcDbBlockEnd
  0
BLOCK
  5
33A
330
339
100
AcDbEntity
  8
0
100
AcDbBlockBegin
  2
*D2
 70
     1
 10
0.0
 20
0.0
 30
0.0
  3
*D2
  1

  0
LINE
  5
16EF
330
339
100
AcDbEntity
  8
Dimensions
 62
     0
440
 16777216
370
    -2
100
AcDbLine
 10
59.87607803303471
 20
90.3652078136533
 30
0.0
 11
60.44719696805345
 21
90.3652078136533
 31
0.0
  0
LINE
  5
16F0
330
339
100
AcDbEntity
  8
Dimensions
 62
     0
440
 16777216
370
    -2
100
AcDbLine
 10
59.87607803303471
 20
89.07710781365308
 30
0.0
 11
60.44719696805345
 21
89.07710781365308
 31
0.0
  0
LINE
  5
16F1
330
339
100
AcDbEntity
  8
Dimensions
 62
     0
440
 16777216
370
    -2
100
AcDbLine
 10
60.34719696805345
 20
90.26520781365332
 30
0.0
 11
60.34719696805345
 21
89.87221511242537
 31
0.0
  0
LINE
  5
16F2
330
339
100
AcDbEntity
  8
Dimensions
 62
     0
440
 16777216
370
    -2
100
AcDbLine
 10
60.34719696805345
 20
89.17710781365309
 30
0.0
 11
60.34719696805345
 21
89.57010051488103
 31
0.0
  0
SOLID
  5
16F3
330
339
100
AcDbEntity
  8
Dimensions
 62
     0
440
 16777216
100
AcDbTrace
 10
60.33053030138678
 20
90.26520781365332
 30
0.0
 11
60.3638636347201
 21
90.26520781365332
 31
0.0
 12
60.34719696805345
 22
90.3652078136533
 32
0.0
 13
60.34719696805345
 23
90.3652078136533
 33
0.0
  0
SOLID
  5
16F4
330
339
100
AcDbEntity
  8
Dimensions
 62
     0
440
 16777216
100
AcDbTrace
 10
60.33053030138678
 20
89.17710781365309
 30
0.0
 11
60.3638636347201
 21
89.17710781365309
 31
0.0
 12
60.34719696805345
 22
89.07710781365308
 32
0.0
 13
60.34719696805345
 23
89.07710781365308
 33
0.0
  0
MTEXT
  5
16F5
330
339
100
AcDbEntity
  8
Dimensions
 62
     0
440
 16777216
100
AcDbMText
 10
60.34719696805346
 20
89.72115781365316
 30
0.0
 40
0.1
 41
0.0
 46
0.0
 71
     5
 72
     1
  1
\A1;1.29±0.10
 73
     1
 44
1.0
  0
POINT
  5
16F6
330
339
100
AcDbEntity
  8
Defpoints
 62
     0
440
 16777216
100
AcDbPoint
 10
59.87607803303471
 20
90.3652078136533
 30
0.0
  0
POINT
  5
16F7
330
339
100
AcDbEntity
  8
Defpoints
 62
     0
440
 16777216
100
AcDbPoint
 10
59.87607803303471
 20
89.07710781365308
 30
0.0
  0
POINT
  5
16F8
330
339
100
AcDbEntity
  8
Defpoints
 62
     0
440
 16777216
100
AcDbPoint
 10
60.34719696805345
 20
89.07710781365308
 30
0.0
  0
ENDBLK
  5
33B
330
339
100
AcDbEntity
  8
0
100
AcDbBlockEnd
  0
BLOCK
  5
354
330
353
100
AcDbEntity
  8
0
100
AcDbBlockBegin
  2
*D3
 70
     1
 10
0.0
 20
0.0
 30
0.0
  3
*D3
  1

  0
LINE
  5
16F9
330
353
100
AcDbEntity
  8
Dimensions
 62
     0
440
 16777216
370
    -2
100
AcDbLine
 10
63.15670748853074
 20
90.2111578136532
 30
0.0
 11
63.15670748853074
 21
90.81887732068723
 31
0.0
  0
LINE
  5
16FA
330
353
100
AcDbEntity
  8
Dimensions
 62
     0
440
 16777216
370
    -2
100
AcDbLine
 10
63.4567074885307
 20
90.2111578136532
 30
0.0
 11
63.4567074885307
 21
90.81887732068723
 31
0.0
  0
LINE
  5
16FB
330
353
100
AcDbEntity
  8
Dimensions
 62
     0
440
 16777216
370
    -2
100
AcDbLine
 10
63.55670748853071
 20
90.71887732068724
 30
0.0
 11
63.65670748853069
 21
90.71887732068724
 31
0.0
  0
LINE
  5
16FC
330
353
100
AcDbEntity
  8
Dimensions
 62
     0
440
 16777216
370
    -2
100
AcDbLine
 10
63.05670748853074
 20
90.71887732068724
 30
0.0
 11
62.91786028525653
 21
90.71887732068724
 31
0.0
  0
SOLID
  5
16FD
330
353
100
AcDbEntity
  8
Dimensions
 62
     0
440
 16777216
100
AcDbTrace
 10
63.55670748853071
 20
90.73554398735392
 30
0.0
 11
63.55670748853071
 21
90.70221065402057
 31
0.0
 12
63.4567074885307
 22
90.71887732068724
 32
0.0
 13
63.4567074885307
 23
90.71887732068724
 33
0.0
  0
SOLID
  5
16FE
330
353
100
AcDbEntity
  8
Dimensions
 62
     0
440
 16777216
100
AcDbTrace
 10
63.05670748853074
 20
90.73554398735392
 30
0.0
 11
63.05670748853074
 21
90.70221065402057
 31
0.0
 12
63.15670748853074
 22
90.71887732068724
 32
0.0
 13
63.15670748853074
 23
90.71887732068724
 33
0.0
  0
MTEXT
  5
16FF
330
353
100
AcDbEntity
  8
Dimensions
 62
     0
440
 16777216
100
AcDbMText
 10
62.68815360039977
 20
90.71887732068724
 30
0.0
 40
0.1
 41
0.0
 46
0.0
 71
     5
 72
     1
  1
\A1;0.30
 73
     1
 44
1.0
  0
POINT
  5
1700
330
353
100
AcDbEntity
  8
Defpoints
 62
     0
440
 16777216
100
AcDbPoint
 10
63.15670748853074
 20
90.2111578136532
 30
0.0
  0
POINT
  5
1701
330
353
100
AcDbEntity
  8
Defpoints
 62
     0
440
 16777216
100
AcDbPoint
 10
63.4567074885307
 20
90.2111578136532
 30
0.0
  0
POINT
  5
1702
330
353
100
AcDbEntity
  8
Defpoints
 62
     0
440
 16777216
100
AcDbPoint
 10
63.4567074885307
 20
90.71887732068724
 30
0.0
  0
ENDBLK
  5
355
330
353
100
AcDbEntity
  8
0
100
AcDbBlockEnd
  0
BLOCK
  5
36E
330
36D
100
AcDbEntity
  8
0
100
AcDbBlockBegin
  2
*D4
 70
     1
 10
0.0
 20
0.0
 30
0.0
  3
*D4
  1

  0
LINE
  5
1641
330
36D
100
AcDbEntity
  8
Dimensions
 62
     0
440
 16777216
370
    -2
100
AcDbLine
 10
63.30670748853075
 20
90.32115781365332
 30
0.0
 11
62.50050495192867
 21
90.32115781365332
 31
0.0
  0
LINE
  5
1642
330
36D
100
AcDbEntity
  8
Dimensions
 62
     0
440
 16777216
370
    -2
100
AcDbLine
 10
63.30670748853075
 20
90.10115781365309
 30
0.0
 11
62.50050495192867
 21
90.10115781365309
 31
0.0
  0
LINE
  5
1643
330
36D
100
AcDbEntity
  8
Dimensions
 62
     0
440
 16777216
370
    -2
100
AcDbLine
 10
62.60050495192867
 20
90.00115781365309
 30
0.0
 11
62.60050495192867
 21
89.90115781365309
 31
0.0
  0
LINE
  5
1644
330
36D
100
AcDbEntity
  8
Dimensions
 62
     0
440
 16777216
370
    -2
100
AcDbLine
 10
62.60050495192867
 20
90.42115781365334
 30
0.0
 11
62.60050495192867
 21
90.52115781365335
 31
0.0
  0
LINE
  5
1645
330
36D
100
AcDbEntity
  8
Dimensions
 62
     0
440
 16777216
370
    -2
100
AcDbLine
 10
62.60050495192867
 20
90.52115781365335
 30
0.0
 11
62.70050495192869
 21
90.52115781365335
 31
0.0
  0
SOLID
  5
1646
330
36D
100
AcDbEntity
  8
Dimensions
 62
     0
440
 16777216
100
AcDbTrace
 10
62.58383828526201
 20
90.00115781365309
 30
0.0
 11
62.61717161859534
 21
90.00115781365309
 31
0.0
 12
62.60050495192867
 22
90.10115781365309
 32
0.0
 13
62.60050495192867
 23
90.10115781365309
 33
0.0
  0
SOLID
  5
1647
330
36D
100
AcDbEntity
  8
Dimensions
 62
     0
440
 16777216
100
AcDbTrace
 10
62.58383828526201
 20
90.42115781365334
 30
0.0
 11
62.61717161859534
 21
90.42115781365334
 31
0.0
 12
62.60050495192867
 22
90.32115781365332
 32
0.0
 13
62.60050495192867
 23
90.32115781365332
 33
0.0
  0
MTEXT
  5
1648
330
36D
100
AcDbEntity
  8
Dimensions
 62
     0
440
 16777216
100
AcDbMText
 10
62.92987057266539
 20
90.52115781365332
 30
0.0
 40
0.1
 41
0.0
 46
0.0
 71
     5
 72
     1
  1
\A1;0.22
 73
     1
 44
1.0
  0
POINT
  5
1649
330
36D
100
AcDbEntity
  8
Defpoints
 62
     0
440
 16777216
100
AcDbPoint
 10
63.30670748853075
 20
90.32115781365332
 30
0.0
  0
POINT
  5
164A
330
36D
100
AcDbEntity
  8
Defpoints
 62
     0
440
 16777216
100
AcDbPoint
 10
63.30670748853075
 20
90.10115781365309
 30
0.0
  0
POINT
  5
164B
330
36D
100
AcDbEntity
  8
Defpoints
 62
     0
440
 16777216
100
AcDbPoint
 10
62.60050495192867
 20
90.10115781365309
 30
0.0
  0
ENDBLK
  5
36F
330
36D
100
AcDbEntity
  8
0
100
AcDbBlockEnd
  0
BLOCK
  5
3E8
330
3E7
100
AcDbEntity
  8
0
100
AcDbBlockBegin
  2
*D7
 70
     1
 10
0.0
 20
0.0
 30
0.0
  3
*D7
  1

  0
LINE
  5
1656
330
3E7
100
AcDbEntity
  8
Dimensions
 62
     0
440
 16777216
370
    -2
100
AcDbLine
 10
64.6067074885307
 20
89.2311578136532
 30
0.0
 11
65.21555515613048
 21
89.2311578136532
 31
0.0
  0
LINE
  5
1657
330
3E7
100
AcDbEntity
  8
Dimensions
 62
     0
440
 16777216
370
    -2
100
AcDbLine
 10
64.6067074885307
 20
89.07710781365308
 30
0.0
 11
65.21555515613048
 21
89.07710781365308
 31
0.0
  0
LINE
  5
1658
330
3E7
100
AcDbEntity
  8
Dimensions
 62
     0
440
 16777216
370
    -2
100
AcDbLine
 10
65.11555515613046
 20
88.9771078136531
 30
0.0
 11
65.11555515613046
 21
88.87710781365308
 31
0.0
  0
LINE
  5
1659
330
3E7
100
AcDbEntity
  8
Dimensions
 62
     0
440
 16777216
370
    -2
100
AcDbLine
 10
65.11555515613046
 20
89.33115781365318
 30
0.0
 11
65.11555515613046
 21
89.51458969487935
 31
0.0
  0
LINE
  5
165A
330
3E7
100
AcDbEntity
  8
Dimensions
 62
     0
440
 16777216
370
    -2
100
AcDbLine
 10
65.11555515613046
 20
89.51458969487935
 30
0.0
 11
65.21555515613048
 21
89.51458969487935
 31
0.0
  0
SOLID
  5
165B
330
3E7
100
AcDbEntity
  8
Dimensions
 62
     0
440
 16777216
100
AcDbTrace
 10
65.09888848946381
 20
88.9771078136531
 30
0.0
 11
65.13222182279715
 21
88.9771078136531
 31
0.0
 12
65.11555515613046
 22
89.07710781365308
 32
0.0
 13
65.11555515613046
 23
89.07710781365308
 33
0.0
  0
SOLID
  5
165C
330
3E7
100
AcDbEntity
  8
Dimensions
 62
     0
440
 16777216
100
AcDbTrace
 10
65.09888848946381
 20
89.33115781365318
 30
0.0
 11
65.13222182279715
 21
89.33115781365318
 31
0.0
 12
65.11555515613046
 22
89.2311578136532
 32
0.0
 13
65.11555515613046
 23
89.2311578136532
 33
0.0
  0
MTEXT
  5
165D
330
3E7
100
AcDbEntity
  8
Dimensions
 62
     0
440
 16777216
100
AcDbMText
 10
65.44580754357932
 20
89.5145896948793
 30
0.0
 40
0.1
 41
0.0
 46
0.0
 71
     5
 72
     1
  1
\A1;0.15
 73
     1
 44
1.0
  0
POINT
  5
165E
330
3E7
100
AcDbEntity
  8
Defpoints
 62
     0
440
 16777216
100
AcDbPoint
 10
64.6067074885307
 20
89.2311578136532
 30
0.0
  0
POINT
  5
165F
330
3E7
100
AcDbEntity
  8
Defpoints
 62
     0
440
 16777216
100
AcDbPoint
 10
64.6067074885307
 20
89.07710781365308
 30
0.0
  0
POINT
  5
1660
330
3E7
100
AcDbEntity
  8
Defpoints
 62
     0
440
 16777216
100
AcDbPoint
 10
65.11555515613046
 20
89.07710781365308
 30
0.0
  0
ENDBLK
  5
3E9
330
3E7
100
AcDbEntity
  8
0
100
AcDbBlockEnd
  0
BLOCK
  5
438
330
437
100
AcDbEntity
  8
0
100
AcDbBlockBegin
  2
*D9
 70
     1
 10
0.0
 20
0.0
 30
0.0
  3
*D9
  1

  0
LINE
  5
166B
330
437
100
AcDbEntity
  8
Dimensions
 62
     0
440
 16777216
370
    -2
100
AcDbLine
 10
63.80713120926793
 20
89.20537591693415
 30
0.0
 11
63.80713120926793
 21
88.60032843111593
 31
0.0
  0
LINE
  5
166C
330
437
100
AcDbEntity
  8
Dimensions
 62
     0
440
 16777216
370
    -2
100
AcDbLine
 10
64.10713120926789
 20
89.20537591693415
 30
0.0
 11
64.10713120926789
 21
88.60032843111593
 31
0.0
  0
LINE
  5
166D
330
437
100
AcDbEntity
  8
Dimensions
 62
     0
440
 16777216
370
    -2
100
AcDbLine
 10
64.20713120926788
 20
88.70032843111593
 30
0.0
 11
64.30713120926789
 21
88.70032843111593
 31
0.0
  0
LINE
  5
166E
330
437
100
AcDbEntity
  8
Dimensions
 62
     0
440
 16777216
370
    -2
100
AcDbLine
 10
63.70713120926794
 20
88.70032843111593
 30
0.0
 11
63.56424452306029
 21
88.70032843111593
 31
0.0
  0
SOLID
  5
166F
330
437
100
AcDbEntity
  8
Dimensions
 62
     0
440
 16777216
100
AcDbTrace
 10
64.20713120926788
 20
88.71699509778258
 30
0.0
 11
64.20713120926788
 21
88.68366176444927
 31
0.0
 12
64.10713120926789
 22
88.70032843111593
 32
0.0
 13
64.10713120926789
 23
88.70032843111593
 33
0.0
  0
SOLID
  5
1670
330
437
100
AcDbEntity
  8
Dimensions
 62
     0
440
 16777216
100
AcDbTrace
 10
63.70713120926794
 20
88.71699509778258
 30
0.0
 11
63.70713120926794
 21
88.68366176444927
 31
0.0
 12
63.80713120926793
 22
88.70032843111593
 32
0.0
 13
63.80713120926793
 23
88.70032843111593
 33
0.0
  0
MTEXT
  5
1671
330
437
100
AcDbEntity
  8
Dimensions
 62
     0
440
 16777216
100
AcDbMText
 10
63.33453783820353
 20
88.70032843111593
 30
0.0
 40
0.1
 41
0.0
 46
0.0
 71
     5
 72
     1
  1
\A1;0.30
 73
     1
 44
1.0
  0
POINT
  5
1672
330
437
100
AcDbEntity
  8
Defpoints
 62
     0
440
 16777216
100
AcDbPoint
 10
63.80713120926793
 20
89.20537591693415
 30
0.0
  0
POINT
  5
1673
330
437
100
AcDbEntity
  8
Defpoints
 62
     0
440
 16777216
100
AcDbPoint
 10
64.10713120926789
 20
89.20537591693415
 30
0.0
  0
POINT
  5
1674
330
437
100
AcDbEntity
  8
Defpoints
 62
     0
440
 16777216
100
AcDbPoint
 10
64.10713120926789
 20
88.70032843111593
 30
0.0
  0
ENDBLK
  5
439
330
437
100
AcDbEntity
  8
0
100
AcDbBlockEnd
  0
BLOCK
  5
68A
330
689
100
AcDbEntity
  8
0
100
AcDbBlockBegin
  2
*D10
 70
     1
 10
0.0
 20
0.0
 30
0.0
  3
*D10
  1

  0
LINE
  5
169F
330
689
100
AcDbEntity
  8
Dimensions
 62
     0
440
 16777216
370
    -2
100
AcDbLine
 10
65.86319628152074
 20
82.49589961596594
 30
0.0
 11
65.62368741385347
 21
82.49589961596594
 31
0.0
  0
LINE
  5
16A0
330
689
100
AcDbEntity
  8
Dimensions
 62
     0
440
 16777216
370
    -2
100
AcDbLine
 10
65.62368741385347
 20
82.49589961596594
 30
0.0
 11
65.29266892536243
 21
82.09629305527625
 31
0.0
  0
MTEXT
  5
16A1
330
689
100
AcDbEntity
  8
Dimensions
 62
     0
440
 16777216
100
AcDbMText
 10
66.14784839611826
 20
82.49589961596594
 30
0.0
 40
0.1
 41
0.0
 46
0.0
 71
     5
 72
     1
  1
\A1;∅0.25
 73
     1
 44
1.0
  0
SOLID
  5
16A2
330
689
100
AcDbEntity
  8
Dimensions
 62
     0
440
 16777216
100
AcDbTrace
 10
65.27983390585706
 20
82.1069250848132
 30
0.0
 11
65.30550394486779
 21
82.0856610257393
 31
0.0
 12
65.22887674814064
 22
82.01928293824408
 32
0.0
 13
65.22887674814064
 23
82.01928293824408
 33
0.0
  0
LINE
  5
16A3
330
689
100
AcDbEntity
  8
Dimensions
 62
     0
440
 16777216
370
    -2
100
AcDbLine
 10
65.05786068306891
 20
81.92148008961316
 30
0.0
 11
65.23786068306893
 21
81.92148008961316
 31
0.0
  0
LINE
  5
16A4
330
689
100
AcDbEntity
  8
Dimensions
 62
     0
440
 16777216
370
    -2
100
AcDbLine
 10
65.14786068306893
 20
81.83148008961316
 30
0.0
 11
65.14786068306889
 21
82.0114800896132
 31
0.0
  0
POINT
  5
16A5
330
689
100
AcDbEntity
  8
Defpoints
 62
     0
440
 16777216
100
AcDbPoint
 10
65.22887674814064
 20
82.01928293824408
 30
0.0
  0
POINT
  5
16A6
330
689
100
AcDbEntity
  8
Defpoints
 62
     0
440
 16777216
100
AcDbPoint
 10
65.06684461799718
 20
81.82367724098225
 30
0.0
  0
ENDBLK
  5
68B
330
689
100
AcDbEntity
  8
0
100
AcDbBlockEnd
  0
BLOCK
  5
695
330
694
100
AcDbEntity
  8
0
100
AcDbBlockBegin
  2
*D11
 70
     1
 10
0.0
 20
0.0
 30
0.0
  3
*D11
  1

  0
LINE
  5
1695
330
694
100
AcDbEntity
  8
Dimensions
 62
     0
440
 16777216
370
    -2
100
AcDbLine
 10
64.27015819738753
 20
81.62562398102755
 30
0.0
 11
63.17015819738752
 21
81.62562398102755
 31
0.0
  0
LINE
  5
1696
330
694
100
AcDbEntity
  8
Dimensions
 62
     0
440
 16777216
370
    -2
100
AcDbLine
 10
64.27015819738753
 20
80.30482398102778
 30
0.0
 11
63.17015819738752
 21
80.30482398102778
 31
0.0
  0
LINE
  5
1697
330
694
100
AcDbEntity
  8
Dimensions
 62
     0
440
 16777216
370
    -2
100
AcDbLine
 10
63.27015819738753
 20
81.52562398102757
 30
0.0
 11
63.27015819738753
 21
81.11631538621184
 31
0.0
  0
LINE
  5
1698
330
694
100
AcDbEntity
  8
Dimensions
 62
     0
440
 16777216
370
    -2
100
AcDbLine
 10
63.27015819738753
 20
80.40482398102779
 30
0.0
 11
63.27015819738753
 21
80.81413257584349
 31
0.0
  0
SOLID
  5
1699
330
694
100
AcDbEntity
  8
Dimensions
 62
     0
440
 16777216
100
AcDbTrace
 10
63.25349153072086
 20
81.52562398102757
 30
0.0
 11
63.28682486405418
 21
81.52562398102757
 31
0.0
 12
63.27015819738753
 22
81.62562398102755
 32
0.0
 13
63.27015819738753
 23
81.62562398102755
 33
0.0
  0
SOLID
  5
169A
330
694
100
AcDbEntity
  8
Dimensions
 62
     0
440
 16777216
100
AcDbTrace
 10
63.25349153072086
 20
80.40482398102779
 30
0.0
 11
63.28682486405418
 21
80.40482398102779
 31
0.0
 12
63.27015819738753
 22
80.30482398102778
 32
0.0
 13
63.27015819738753
 23
80.30482398102778
 33
0.0
  0
MTEXT
  5
169B
330
694
100
AcDbEntity
  8
Dimensions
 62
     0
440
 16777216
100
AcDbMText
 10
63.27015819738754
 20
80.96522398102766
 30
0.0
 40
0.1
 41
0.0
 46
0.0
 71
     5
 72
     1
  1
\A1;1.32
 73
     1
 44
1.0
  0
POINT
  5
169C
330
694
100
AcDbEntity
  8
Defpoints
 62
     0
440
 16777216
100
AcDbPoint
 10
64.94466068306869
 20
81.62562398102755
 30
0.0
  0
POINT
  5
169D
330
694
100
AcDbEntity
  8
Defpoints
 62
     0
440
 16777216
100
AcDbPoint
 10
64.94466068306869
 20
80.30482398102778
 30
0.0
  0
POINT
  5
169E
330
694
100
AcDbEntity
  8
Defpoints
 62
     0
440
 16777216
100
AcDbPoint
 10
63.27015819738753
 20
80.30482398102778
 30
0.0
  0
ENDBLK
  5
696
330
694
100
AcDbEntity
  8
0
100
AcDbBlockEnd
  0
BLOCK
  5
6A2
330
6A1
100
AcDbEntity
  8
0
100
AcDbBlockBegin
  2
*D12
 70
     1
 10
0.0
 20
0.0
 30
0.0
  3
*D12
  1

  0
LINE
  5
168A
330
6A1
100
AcDbEntity
  8
Dimensions
 62
     0
440
 16777216
370
    -2
100
AcDbLine
 10
64.61068129503829
 20
81.62562398102755
 30
0.0
 11
63.51068129503829
 21
81.62562398102755
 31
0.0
  0
LINE
  5
168B
330
6A1
100
AcDbEntity
  8
Dimensions
 62
     0
440
 16777216
370
    -2
100
AcDbLine
 10
64.61068129503829
 20
81.80213710000659
 30
0.0
 11
63.51068129503829
 21
81.80213710000659
 31
0.0
  0
LINE
  5
168C
330
6A1
100
AcDbEntity
  8
Dimensions
 62
     0
440
 16777216
370
    -2
100
AcDbLine
 10
63.61068129503829
 20
81.52562398102757
 30
0.0
 11
63.61068129503829
 21
81.42562398102757
 31
0.0
  0
LINE
  5
168D
330
6A1
100
AcDbEntity
  8
Dimensions
 62
     0
440
 16777216
370
    -2
100
AcDbLine
 10
63.61068129503829
 20
81.90213710000659
 30
0.0
 11
63.61068129503829
 21
82.00213710000658
 31
0.0
  0
LINE
  5
168E
330
6A1
100
AcDbEntity
  8
Dimensions
 62
     0
440
 16777216
370
    -2
100
AcDbLine
 10
63.61068129503829
 20
82.00213710000658
 30
0.0
 11
63.71068129503829
 21
82.00213710000658
 31
0.0
  0
SOLID
  5
168F
330
6A1
100
AcDbEntity
  8
Dimensions
 62
     0
440
 16777216
100
AcDbTrace
 10
63.59401462837162
 20
81.52562398102757
 30
0.0
 11
63.62734796170496
 21
81.52562398102757
 31
0.0
 12
63.61068129503829
 22
81.62562398102755
 32
0.0
 13
63.61068129503829
 23
81.62562398102755
 33
0.0
  0
SOLID
  5
1690
330
6A1
100
AcDbEntity
  8
Dimensions
 62
     0
440
 16777216
100
AcDbTrace
 10
63.59401462837162
 20
81.90213710000659
 30
0.0
 11
63.62734796170496
 21
81.90213710000659
 31
0.0
 12
63.61068129503829
 22
81.80213710000659
 32
0.0
 13
63.61068129503829
 23
81.80213710000659
 33
0.0
  0
MTEXT
  5
1691
330
6A1
100
AcDbEntity
  8
Dimensions
 62
     0
440
 16777216
100
AcDbMText
 10
63.9406608311911
 20
82.00213710000657
 30
0.0
 40
0.1
 41
0.0
 46
0.0
 71
     5
 72
     1
  1
\A1;0.18
 73
     1
 44
1.0
  0
POINT
  5
1692
330
6A1
100
AcDbEntity
  8
Defpoints
 62
     0
440
 16777216
100
AcDbPoint
 10
64.94466068306886
 20
81.62562398102755
 30
0.0
  0
POINT
  5
1693
330
6A1
100
AcDbEntity
  8
Defpoints
 62
     0
440
 16777216
100
AcDbPoint
 10
64.90416068306811
 20
81.80213710000659
 30
0.0
  0
POINT
  5
1694
330
6A1
100
AcDbEntity
  8
Defpoints
 62
     0
440
 16777216
100
AcDbPoint
 10
63.61068129503829
 20
81.80213710000659
 30
0.0
  0
ENDBLK
  5
6A3
330
6A1
100
AcDbEntity
  8
0
100
AcDbBlockEnd
  0
BLOCK
  5
6B0
330
6AF
100
AcDbEntity
  8
0
100
AcDbBlockBegin
  2
*D13
 70
     1
 10
0.0
 20
0.0
 30
0.0
  3
*D13
  1

  0
LINE
  5
1680
330
6AF
100
AcDbEntity
  8
Dimensions
 62
     0
440
 16777216
370
    -2
100
AcDbLine
 10
64.01945726496307
 20
81.80213710000659
 30
0.0
 11
62.91945726496307
 21
81.80213710000659
 31
0.0
  0
LINE
  5
1681
330
6AF
100
AcDbEntity
  8
Dimensions
 62
     0
440
 16777216
370
    -2
100
AcDbLine
 10
64.01945726496307
 20
82.14242307921962
 30
0.0
 11
62.91945726496307
 21
82.14242307921962
 31
0.0
  0
LINE
  5
1682
330
6AF
100
AcDbEntity
  8
Dimensions
 62
     0
440
 16777216
370
    -2
100
AcDbLine
 10
63.01945726496307
 20
81.70213710000659
 30
0.0
 11
63.01945726496307
 21
81.60213710000659
 31
0.0
  0
LINE
  5
1683
330
6AF
100
AcDbEntity
  8
Dimensions
 62
     0
440
 16777216
370
    -2
100
AcDbLine
 10
63.01945726496307
 20
82.2424230792196
 30
0.0
 11
63.01945726496307
 21
82.34242307921963
 31
0.0
  0
SOLID
  5
1684
330
6AF
100
AcDbEntity
  8
Dimensions
 62
     0
440
 16777216
100
AcDbTrace
 10
63.00279059829641
 20
81.70213710000659
 30
0.0
 11
63.03612393162975
 21
81.70213710000659
 31
0.0
 12
63.01945726496307
 22
81.80213710000659
 32
0.0
 13
63.01945726496307
 23
81.80213710000659
 33
0.0
  0
SOLID
  5
1685
330
6AF
100
AcDbEntity
  8
Dimensions
 62
     0
440
 16777216
100
AcDbTrace
 10
63.00279059829641
 20
82.2424230792196
 30
0.0
 11
63.03612393162975
 21
82.2424230792196
 31
0.0
 12
63.01945726496307
 22
82.14242307921962
 32
0.0
 13
63.01945726496307
 23
82.14242307921962
 33
0.0
  0
MTEXT
  5
1686
330
6AF
100
AcDbEntity
  8
Dimensions
 62
     0
440
 16777216
100
AcDbMText
 10
63.0194572649631
 20
81.97228008961308
 30
0.0
 40
0.1
 41
0.0
 46
0.0
 71
     5
 72
     1
  1
\A1;0.34
 73
     1
 44
1.0
  0
POINT
  5
1687
330
6AF
100
AcDbEntity
  8
Defpoints
 62
     0
440
 16777216
100
AcDbPoint
 10
64.90416068306811
 20
81.80213710000659
 30
0.0
  0
POINT
  5
1688
330
6AF
100
AcDbEntity
  8
Defpoints
 62
     0
440
 16777216
100
AcDbPoint
 10
64.90416068306811
 20
82.14242307921962
 30
0.0
  0
POINT
  5
1689
330
6AF
100
AcDbEntity
  8
Defpoints
 62
     0
440
 16777216
100
AcDbPoint
 10
63.01945726496307
 20
82.14242307921962
 30
0.0
  0
ENDBLK
  5
6B1
330
6AF
100
AcDbEntity
  8
0
100
AcDbBlockEnd
  0
BLOCK
  5
768
330
767
100
AcDbEntity
  8
0
100
AcDbBlockBegin
  2
*D15
 70
     1
 10
0.0
 20
0.0
 30
0.0
  3
*D15
  1

  0
LINE
  5
16A7
330
767
100
AcDbEntity
  8
Dimensions
 62
     0
440
 16777216
370
    -2
100
AcDbLine
 10
64.94466068306866
 20
80.6475452773712
 30
0.0
 11
64.94466068306866
 21
79.5475452773712
 31
0.0
  0
LINE
  5
16A8
330
767
100
AcDbEntity
  8
Dimensions
 62
     0
440
 16777216
370
    -2
100
AcDbLine
 10
65.35106068306845
 20
80.6475452773712
 30
0.0
 11
65.35106068306845
 21
79.5475452773712
 31
0.0
  0
LINE
  5
16A9
330
767
100
AcDbEntity
  8
Dimensions
 62
     0
440
 16777216
370
    -2
100
AcDbLine
 10
65.04466068306864
 20
79.6475452773712
 30
0.0
 11
65.25106068306846
 21
79.6475452773712
 31
0.0
  0
LINE
  5
16AA
330
767
100
AcDbEntity
  8
Dimensions
 62
     0
440
 16777216
370
    -2
100
AcDbLine
 10
65.35106068306845
 20
79.6475452773712
 30
0.0
 11
65.45106068306846
 21
79.6475452773712
 31
0.0
  0
SOLID
  5
16AB
330
767
100
AcDbEntity
  8
Dimensions
 62
     0
440
 16777216
100
AcDbTrace
 10
65.04466068306864
 20
79.66421194403787
 30
0.0
 11
65.04466068306864
 21
79.63087861070454
 31
0.0
 12
64.94466068306866
 22
79.6475452773712
 32
0.0
 13
64.94466068306866
 23
79.6475452773712
 33
0.0
  0
SOLID
  5
16AC
330
767
100
AcDbEntity
  8
Dimensions
 62
     0
440
 16777216
100
AcDbTrace
 10
65.25106068306846
 20
79.66421194403787
 30
0.0
 11
65.25106068306846
 21
79.63087861070454
 31
0.0
 12
65.35106068306845
 22
79.6475452773712
 32
0.0
 13
65.35106068306845
 23
79.6475452773712
 33
0.0
  0
MTEXT
  5
16AD
330
767
100
AcDbEntity
  8
Dimensions
 62
     0
440
 16777216
100
AcDbMText
 10
65.6712857853877
 20
79.6475452773712
 30
0.0
 40
0.1
 41
0.0
 46
0.0
 71
     5
 72
     1
  1
\A1;0.41
 73
     1
 44
1.0
  0
POINT
  5
16AE
330
767
100
AcDbEntity
  8
Defpoints
 62
     0
440
 16777216
100
AcDbPoint
 10
64.94466068306866
 20
80.96522398102766
 30
0.0
  0
POINT
  5
16AF
330
767
100
AcDbEntity
  8
Defpoints
 62
     0
440
 16777216
100
AcDbPoint
 10
65.35106068306845
 20
80.96522398102766
 30
0.0
  0
POINT
  5
16B0
330
767
100
AcDbEntity
  8
Defpoints
 62
     0
440
 16777216
100
AcDbPoint
 10
65.35106068306845
 20
79.6475452773712
 30
0.0
  0
ENDBLK
  5
769
330
767
100
AcDbEntity
  8
0
100
AcDbBlockEnd
  0
BLOCK
  5
775
330
774
100
AcDbEntity
  8
0
100
AcDbBlockBegin
  2
*D16
 70
     1
 10
0.0
 20
0.0
 30
0.0
  3
*D16
  1

  0
LINE
  5
16B1
330
774
100
AcDbEntity
  8
Dimensions
 62
     0
440
 16777216
370
    -2
100
AcDbLine
 10
64.90416068306807
 20
80.12831086204945
 30
0.0
 11
64.90416068306807
 21
79.27078878851141
 31
0.0
  0
LINE
  5
16B2
330
774
100
AcDbEntity
  8
Dimensions
 62
     0
440
 16777216
370
    -2
100
AcDbLine
 10
65.39156068306903
 20
80.12831086204874
 30
0.0
 11
65.39156068306903
 21
79.27078878851141
 31
0.0
  0
LINE
  5
16B3
330
774
100
AcDbEntity
  8
Dimensions
 62
     0
440
 16777216
370
    -2
100
AcDbLine
 10
64.80416068306809
 20
79.3707887885114
 30
0.0
 11
64.70416068306808
 21
79.3707887885114
 31
0.0
  0
LINE
  5
16B4
330
774
100
AcDbEntity
  8
Dimensions
 62
     0
440
 16777216
370
    -2
100
AcDbLine
 10
65.49156068306903
 20
79.3707887885114
 30
0.0
 11
65.59156068306903
 21
79.3707887885114
 31
0.0
  0
SOLID
  5
16B5
330
774
100
AcDbEntity
  8
Dimensions
 62
     0
440
 16777216
100
AcDbTrace
 10
64.80416068306809
 20
79.38745545517805
 30
0.0
 11
64.80416068306809
 21
79.35412212184473
 31
0.0
 12
64.90416068306807
 22
79.3707887885114
 32
0.0
 13
64.90416068306807
 23
79.3707887885114
 33
0.0
  0
SOLID
  5
16B6
330
774
100
AcDbEntity
  8
Dimensions
 62
     0
440
 16777216
100
AcDbTrace
 10
65.49156068306903
 20
79.38745545517805
 30
0.0
 11
65.49156068306903
 21
79.35412212184473
 31
0.0
 12
65.39156068306903
 22
79.3707887885114
 32
0.0
 13
65.39156068306903
 23
79.3707887885114
 33
0.0
  0
MTEXT
  5
16B7
330
774
100
AcDbEntity
  8
Dimensions
 62
     0
440
 16777216
100
AcDbMText
 10
65.14786068306856
 20
79.3707887885114
 30
0.0
 40
0.1
 41
0.0
 46
0.0
 71
     5
 72
     1
  1
\A1;0.49
 73
     1
 44
1.0
  0
POINT
  5
16B8
330
774
100
AcDbEntity
  8
Defpoints
 62
     0
440
 16777216
100
AcDbPoint
 10
64.90416068306807
 20
80.12831086204945
 30
0.0
  0
POINT
  5
16B9
330
774
100
AcDbEntity
  8
Defpoints
 62
     0
440
 16777216
100
AcDbPoint
 10
65.39156068306903
 20
80.12831086204874
 30
0.0
  0
POINT
  5
16BA
330
774
100
AcDbEntity
  8
Defpoints
 62
     0
440
 16777216
100
AcDbPoint
 10
65.39156068306903
 20
79.3707887885114
 30
0.0
  0
ENDBLK
  5
776
330
774
100
AcDbEntity
  8
0
100
AcDbBlockEnd
  0
BLOCK
  5
F20
330
F1F
100
AcDbEntity
  8
0
100
AcDbBlockBegin
  2
*D20
 70
     1
 10
0.0
 20
0.0
 30
0.0
  3
*D20
  1

  0
LINE
  5
17C8
330
F1F
100
AcDbEntity
  8
Dimensions
 62
     0
440
 16777216
370
    -2
100
AcDbLine
 10
60.40673002773817
 20
81.29542398102818
 30
0.0
 11
61.14586006559201
 21
81.29542398102818
 31
0.0
  0
LINE
  5
17C9
330
F1F
100
AcDbEntity
  8
Dimensions
 62
     0
440
 16777216
370
    -2
100
AcDbLine
 10
60.40673002773817
 20
80.63502398102791
 30
0.0
 11
61.14586006559201
 21
80.63502398102791
 31
0.0
  0
LINE
  5
17CA
330
F1F
100
AcDbEntity
  8
Dimensions
 62
     0
440
 16777216
370
    -2
100
AcDbLine
 10
61.04586006559201
 20
81.19542398102819
 30
0.0
 11
61.04586006559201
 21
80.73502398102791
 31
0.0
  0
LINE
  5
17CB
330
F1F
100
AcDbEntity
  8
Dimensions
 62
     0
440
 16777216
370
    -2
100
AcDbLine
 10
61.04586006559201
 20
80.63502398102791
 30
0.0
 11
61.04586006559201
 21
80.53502398102791
 31
0.0
  0
LINE
  5
17CC
330
F1F
100
AcDbEntity
  8
Dimensions
 62
     0
440
 16777216
370
    -2
100
AcDbLine
 10
61.04586006559201
 20
80.53502398102791
 30
0.0
 11
60.945860065592
 21
80.53502398102791
 31
0.0
  0
SOLID
  5
17CD
330
F1F
100
AcDbEntity
  8
Dimensions
 62
     0
440
 16777216
100
AcDbTrace
 10
61.02919339892534
 20
81.19542398102819
 30
0.0
 11
61.06252673225867
 21
81.19542398102819
 31
0.0
 12
61.04586006559201
 22
81.29542398102818
 32
0.0
 13
61.04586006559201
 23
81.29542398102818
 33
0.0
  0
SOLID
  5
17CE
330
F1F
100
AcDbEntity
  8
Dimensions
 62
     0
440
 16777216
100
AcDbTrace
 10
61.02919339892534
 20
80.73502398102791
 30
0.0
 11
61.06252673225867
 21
80.73502398102791
 31
0.0
 12
61.04586006559201
 22
80.63502398102791
 32
0.0
 13
61.04586006559201
 23
80.63502398102791
 33
0.0
  0
MTEXT
  5
17CF
330
F1F
100
AcDbEntity
  8
Dimensions
 62
     0
440
 16777216
100
AcDbMText
 10
60.71601695508725
 20
80.53502398102789
 30
0.0
 40
0.1
 41
0.0
 46
0.0
 71
     5
 72
     1
  1
\A1;0.66
 73
     1
 44
1.0
  0
POINT
  5
17D0
330
F1F
100
AcDbEntity
  8
Defpoints
 62
     0
440
 16777216
100
AcDbPoint
 10
60.40673002773817
 20
81.29542398102818
 30
0.0
  0
POINT
  5
17D1
330
F1F
100
AcDbEntity
  8
Defpoints
 62
     0
440
 16777216
100
AcDbPoint
 10
60.40673002773817
 20
80.63502398102791
 30
0.0
  0
POINT
  5
17D2
330
F1F
100
AcDbEntity
  8
Defpoints
 62
     0
440
 16777216
100
AcDbPoint
 10
61.04586006559201
 20
80.63502398102791
 30
0.0
  0
ENDBLK
  5
F21
330
F1F
100
AcDbEntity
  8
0
100
AcDbBlockEnd
  0
BLOCK
  5
F3A
330
F39
100
AcDbEntity
  8
0
100
AcDbBlockBegin
  2
*D22
 70
     1
 10
0.0
 20
0.0
 30
0.0
  3
*D22
  1

  0
LINE
  5
11AB
330
F39
100
AcDbEntity
  8
Dimensions
 62
     0
440
 16777216
370
    -2
100
AcDbLine
 10
60.19403329520907
 20
81.99358639030752
 30
0.0
 11
60.47573727383525
 21
82.69998522552812
 31
0.0
  0
LINE
  5
11AC
330
F39
100
AcDbEntity
  8
Dimensions
 62
     0
440
 16777216
370
    -2
100
AcDbLine
 10
60.59511681941724
 20
81.83363875322575
 30
0.0
 11
60.87682079804342
 21
82.54003758844634
 31
0.0
  0
LINE
  5
11AD
330
F39
100
AcDbEntity
  8
Dimensions
 62
     0
440
 16777216
370
    -2
100
AcDbLine
 10
60.97734062130149
 20
82.30616633084473
 30
0.0
 11
61.14453616173133
 21
82.23949061367296
 31
0.0
  0
LINE
  5
11AE
330
F39
100
AcDbEntity
  8
Dimensions
 62
     0
440
 16777216
370
    -2
100
AcDbLine
 10
60.24186601623362
 20
82.59946540227005
 30
0.0
 11
59.73498721358755
 21
82.80160301669871
 31
0.0
  0
LINE
  5
11AF
330
F39
100
AcDbEntity
  8
Dimensions
 62
     0
440
 16777216
370
    -2
100
AcDbLine
 10
59.73498721358755
 20
82.80160301669871
 30
0.0
 11
59.55498721358755
 21
82.80160301669871
 31
0.0
  0
SOLID
  5
11B0
330
F39
100
AcDbEntity
  8
Dimensions
 62
     0
440
 16777216
100
AcDbTrace
 10
60.98845324083011
 20
82.3340322542497
 30
0.0
 11
60.96622800177287
 21
82.27830040743977
 31
0.0
 12
60.81014508087164
 22
82.37284204801651
 32
0.0
 13
60.81014508087164
 23
82.37284204801651
 33
0.0
  0
SOLID
  5
11B1
330
F39
100
AcDbEntity
  8
Dimensions
 62
     0
440
 16777216
100
AcDbTrace
 10
60.25297863576223
 20
82.62733132567502
 30
0.0
 11
60.230753396705
 21
82.57159947886508
 31
0.0
 12
60.40906155666347
 22
82.53278968509828
 32
0.0
 13
60.40906155666347
 23
82.53278968509828
 33
0.0
  0
MTEXT
  5
11B2
330
F39
100
AcDbEntity
  8
Dimensions
 62
     0
440
 16777216
100
AcDbMText
 10
58.67757930089997
 20
82.80160301669868
 30
0.0
 40
0.12
 41
0.0
 46
0.0
 71
     5
 72
     1
  1
\A1;4x Transmission Line
 73
     1
 44
1.0
  0
POINT
  5
11B3
330
F39
100
AcDbEntity
  8
Defpoints
 62
     0
440
 16777216
100
AcDbPoint
 10
60.17088200452442
 20
81.93553238321381
 30
0.0
  0
POINT
  5
11B4
330
F39
100
AcDbEntity
  8
Defpoints
 62
     0
440
 16777216
100
AcDbPoint
 10
60.57196552873261
 20
81.77558474613205
 30
0.0
  0
POINT
  5
11B5
330
F39
100
AcDbEntity
  8
Defpoints
 62
     0
440
 16777216
100
AcDbPoint
 10
60.81014508087164
 20
82.37284204801651
 30
0.0
  0
ENDBLK
  5
F3B
330
F39
100
AcDbEntity
  8
0
100
AcDbBlockEnd
  0
BLOCK
  5
1547
330
1546
100
AcDbEntity
  8
0
100
AcDbBlockBegin
  2
*D25
 70
     1
 10
0.0
 20
0.0
 30
0.0
  3
*D25
  1

  0
LINE
  5
16BB
330
1546
100
AcDbEntity
  8
0
 62
     0
440
 16777216
370
    -2
100
AcDbLine
 10
65.35700395193446
 20
82.14242307921962
 30
0.0
 11
66.45700395193445
 21
82.14242307921962
 31
0.0
  0
LINE
  5
16BC
330
1546
100
AcDbEntity
  8
0
 62
     0
440
 16777216
370
    -2
100
AcDbLine
 10
65.35700395193446
 20
81.62562398102794
 30
0.0
 11
66.45700395193445
 21
81.62562398102794
 31
0.0
  0
LINE
  5
16BD
330
1546
100
AcDbEntity
  8
0
 62
     0
440
 16777216
370
    -2
100
AcDbLine
 10
66.35700395193445
 20
82.04242307921964
 30
0.0
 11
66.35700395193445
 21
81.72562398102794
 31
0.0
  0
LINE
  5
16BE
330
1546
100
AcDbEntity
  8
0
 62
     0
440
 16777216
370
    -2
100
AcDbLine
 10
66.35700395193445
 20
81.62562398102794
 30
0.0
 11
66.35700395193445
 21
81.52562398102793
 31
0.0
  0
LINE
  5
16BF
330
1546
100
AcDbEntity
  8
0
 62
     0
440
 16777216
370
    -2
100
AcDbLine
 10
66.35700395193445
 20
81.52562398102793
 30
0.0
 11
66.25700395193447
 21
81.52562398102793
 31
0.0
  0
SOLID
  5
16C0
330
1546
100
AcDbEntity
  8
0
 62
     0
440
 16777216
100
AcDbTrace
 10
66.34033728526779
 20
82.04242307921964
 30
0.0
 11
66.37367061860112
 21
82.04242307921964
 31
0.0
 12
66.35700395193445
 22
82.14242307921962
 32
0.0
 13
66.35700395193445
 23
82.14242307921962
 33
0.0
  0
SOLID
  5
16C1
330
1546
100
AcDbEntity
  8
0
 62
     0
440
 16777216
100
AcDbTrace
 10
66.34033728526779
 20
81.72562398102794
 30
0.0
 11
66.37367061860112
 21
81.72562398102794
 31
0.0
 12
66.35700395193445
 22
81.62562398102794
 32
0.0
 13
66.35700395193445
 23
81.62562398102794
 33
0.0
  0
MTEXT
  5
16C2
330
1546
100
AcDbEntity
  8
0
 62
     0
440
 16777216
100
AcDbMText
 10
66.02763833119777
 20
81.52562398102793
 30
0.0
 40
0.1
 41
0.0
 46
0.0
 71
     5
 72
     1
  1
\A1;0.52
 73
     1
 44
1.0
  0
POINT
  5
16C3
330
1546
100
AcDbEntity
  8
Defpoints
 62
     0
440
 16777216
100
AcDbPoint
 10
65.14786068306858
 20
82.14242307921962
 30
0.0
  0
POINT
  5
16C4
330
1546
100
AcDbEntity
  8
Defpoints
 62
     0
440
 16777216
100
AcDbPoint
 10
65.14786068306765
 20
81.62562398102794
 30
0.0
  0
POINT
  5
16C5
330
1546
100
AcDbEntity
  8
Defpoints
 62
     0
440
 16777216
100
AcDbPoint
 10
66.35700395193445
 20
81.62562398102794
 30
0.0
  0
ENDBLK
  5
1548
330
1546
100
AcDbEntity
  8
0
100
AcDbBlockEnd
  0
BLOCK
  5
1563
330
1562
100
AcDbEntity
  8
0
100
AcDbBlockBegin
  2
*D26
 70
     1
 10
0.0
 20
0.0
 30
0.0
  3
*D26
  1

  0
LINE
  5
16C6
330
1562
100
AcDbEntity
  8
0
 62
     0
440
 16777216
370
    -2
100
AcDbLine
 10
65.34750698176974
 20
81.44335203532028
 30
0.0
 11
66.44750698176975
 21
81.44335203532028
 31
0.0
  0
LINE
  5
16C7
330
1562
100
AcDbEntity
  8
0
 62
     0
440
 16777216
370
    -2
100
AcDbLine
 10
65.34750698176974
 20
80.96522398102768
 30
0.0
 11
66.44750698176975
 21
80.96522398102768
 31
0.0
  0
LINE
  5
16C8
330
1562
100
AcDbEntity
  8
0
 62
     0
440
 16777216
370
    -2
100
AcDbLine
 10
66.34750698176974
 20
81.34335203532028
 30
0.0
 11
66.34750698176974
 21
81.06522398102766
 31
0.0
  0
LINE
  5
16C9
330
1562
100
AcDbEntity
  8
0
 62
     0
440
 16777216
370
    -2
100
AcDbLine
 10
66.34750698176974
 20
80.96522398102768
 30
0.0
 11
66.34750698176974
 21
80.86522398102768
 31
0.0
  0
LINE
  5
16CA
330
1562
100
AcDbEntity
  8
0
 62
     0
440
 16777216
370
    -2
100
AcDbLine
 10
66.34750698176974
 20
80.86522398102768
 30
0.0
 11
66.24750698176974
 21
80.86522398102768
 31
0.0
  0
SOLID
  5
16CB
330
1562
100
AcDbEntity
  8
0
 62
     0
440
 16777216
100
AcDbTrace
 10
66.33084031510307
 20
81.34335203532028
 30
0.0
 11
66.36417364843641
 21
81.34335203532028
 31
0.0
 12
66.34750698176974
 22
81.44335203532028
 32
0.0
 13
66.34750698176974
 23
81.44335203532028
 33
0.0
  0
SOLID
  5
16CC
330
1562
100
AcDbEntity
  8
0
 62
     0
440
 16777216
100
AcDbTrace
 10
66.33084031510307
 20
81.06522398102766
 30
0.0
 11
66.36417364843641
 21
81.06522398102766
 31
0.0
 12
66.34750698176974
 22
80.96522398102768
 32
0.0
 13
66.34750698176974
 23
80.96522398102768
 33
0.0
  0
MTEXT
  5
16CD
330
1562
100
AcDbEntity
  8
0
 62
     0
440
 16777216
100
AcDbMText
 10
66.01752744561695
 20
80.86522398102765
 30
0.0
 40
0.1
 41
0.0
 46
0.0
 71
     5
 72
     1
  1
\A1;0.48
 73
     1
 44
1.0
  0
POINT
  5
16CE
330
1562
100
AcDbEntity
  8
Defpoints
 62
     0
440
 16777216
100
AcDbPoint
 10
65.14786068306896
 20
81.44335203532028
 30
0.0
  0
POINT
  5
16CF
330
1562
100
AcDbEntity
  8
Defpoints
 62
     0
440
 16777216
100
AcDbPoint
 10
65.14786068306896
 20
80.96522398102768
 30
0.0
  0
POINT
  5
16D0
330
1562
100
AcDbEntity
  8
Defpoints
 62
     0
440
 16777216
100
AcDbPoint
 10
66.34750698176974
 20
80.96522398102768
 30
0.0
  0
ENDBLK
  5
1564
330
1562
100
AcDbEntity
  8
0
100
AcDbBlockEnd
  0
BLOCK
  5
157F
330
157E
100
AcDbEntity
  8
0
100
AcDbBlockBegin
  2
*D27
 70
     1
 10
0.0
 20
0.0
 30
0.0
  3
*D27
  1

  0
LINE
  5
16D1
330
157E
100
AcDbEntity
  8
0
 62
     0
440
 16777216
370
    -2
100
AcDbLine
 10
59.08593002773761
 20
81.62562398102695
 30
0.0
 11
59.08593002773761
 21
82.31258184238678
 31
0.0
  0
LINE
  5
16D2
330
157E
100
AcDbEntity
  8
0
 62
     0
440
 16777216
370
    -2
100
AcDbLine
 10
58.67953002773782
 20
81.62562398102695
 30
0.0
 11
58.67953002773782
 21
82.31258184238678
 31
0.0
  0
LINE
  5
16D3
330
157E
100
AcDbEntity
  8
0
 62
     0
440
 16777216
370
    -2
100
AcDbLine
 10
58.98593002773761
 20
82.21258184238676
 30
0.0
 11
58.77953002773782
 21
82.21258184238676
 31
0.0
  0
LINE
  5
16D4
330
157E
100
AcDbEntity
  8
0
 62
     0
440
 16777216
370
    -2
100
AcDbLine
 10
58.67953002773782
 20
82.21258184238676
 30
0.0
 11
58.57953002773783
 21
82.21258184238676
 31
0.0
  0
SOLID
  5
16D5
330
157E
100
AcDbEntity
  8
0
 62
     0
440
 16777216
100
AcDbTrace
 10
58.98593002773761
 20
82.22924850905343
 30
0.0
 11
58.98593002773761
 21
82.19591517572011
 31
0.0
 12
59.08593002773761
 22
82.21258184238676
 32
0.0
 13
59.08593002773761
 23
82.21258184238676
 33
0.0
  0
SOLID
  5
16D6
330
157E
100
AcDbEntity
  8
0
 62
     0
440
 16777216
100
AcDbTrace
 10
58.77953002773782
 20
82.22924850905343
 30
0.0
 11
58.77953002773782
 21
82.19591517572011
 31
0.0
 12
58.67953002773782
 22
82.21258184238676
 32
0.0
 13
58.67953002773782
 23
82.21258184238676
 33
0.0
  0
MTEXT
  5
16D7
330
157E
100
AcDbEntity
  8
0
 62
     0
440
 16777216
100
AcDbMText
 10
58.3593049254186
 20
82.21258184238676
 30
0.0
 40
0.1
 41
0.0
 46
0.0
 71
     5
 72
     1
  1
\A1;0.41
 73
     1
 44
1.0
  0
POINT
  5
16D8
330
157E
100
AcDbEntity
  8
Defpoints
 62
     0
440
 16777216
100
AcDbPoint
 10
59.08593002773761
 20
81.62562398102695
 30
0.0
  0
POINT
  5
16D9
330
157E
100
AcDbEntity
  8
Defpoints
 62
     0
440
 16777216
100
AcDbPoint
 10
58.67953002773782
 20
81.62562398102695
 30
0.0
  0
POINT
  5
16DA
330
157E
100
AcDbEntity
  8
Defpoints
 62
     0
440
 16777216
100
AcDbPoint
 10
58.67953002773782
 20
82.21258184238676
 30
0.0
  0
ENDBLK
  5
1580
330
157E
100
AcDbEntity
  8
0
100
AcDbBlockEnd
  0
BLOCK
  5
1599
330
1598
100
AcDbEntity
  8
0
100
AcDbBlockBegin
  2
*D28
 70
     1
 10
0.0
 20
0.0
 30
0.0
  3
*D28
  1

  0
LINE
  5
16DB
330
1598
100
AcDbEntity
  8
0
 62
     0
440
 16777216
370
    -2
100
AcDbLine
 10
58.67952999273768
 20
81.62562398102755
 30
0.0
 11
58.08778876306382
 21
81.62562398102755
 31
0.0
  0
LINE
  5
16DC
330
1598
100
AcDbEntity
  8
0
 62
     0
440
 16777216
370
    -2
100
AcDbLine
 10
58.67952999273768
 20
81.29542398102818
 30
0.0
 11
58.08778876306382
 21
81.29542398102818
 31
0.0
  0
LINE
  5
16DD
330
1598
100
AcDbEntity
  8
0
 62
     0
440
 16777216
370
    -2
100
AcDbLine
 10
58.18778876306382
 20
81.72562398102757
 30
0.0
 11
58.18778876306382
 21
81.82562398102758
 31
0.0
  0
LINE
  5
16DE
330
1598
100
AcDbEntity
  8
0
 62
     0
440
 16777216
370
    -2
100
AcDbLine
 10
58.18778876306382
 20
81.19542398102819
 30
0.0
 11
58.18778876306382
 21
81.09542398102817
 31
0.0
  0
SOLID
  5
16DF
330
1598
100
AcDbEntity
  8
0
 62
     0
440
 16777216
100
AcDbTrace
 10
58.17112209639715
 20
81.72562398102757
 30
0.0
 11
58.20445542973049
 21
81.72562398102757
 31
0.0
 12
58.18778876306382
 22
81.62562398102755
 32
0.0
 13
58.18778876306382
 23
81.62562398102755
 33
0.0
  0
SOLID
  5
16E0
330
1598
100
AcDbEntity
  8
0
 62
     0
440
 16777216
100
AcDbTrace
 10
58.17112209639715
 20
81.19542398102819
 30
0.0
 11
58.20445542973049
 21
81.19542398102819
 31
0.0
 12
58.18778876306382
 22
81.29542398102818
 32
0.0
 13
58.18778876306382
 23
81.29542398102818
 33
0.0
  0
MTEXT
  5
16E1
330
1598
100
AcDbEntity
  8
0
 62
     0
440
 16777216
100
AcDbMText
 10
58.18778876306383
 20
81.46052398102785
 30
0.0
 40
0.1
 41
0.0
 46
0.0
 71
     5
 72
     1
  1
\A1;0.33
 73
     1
 44
1.0
  0
POINT
  5
16E2
330
1598
100
AcDbEntity
  8
Defpoints
 62
     0
440
 16777216
100
AcDbPoint
 10
58.67952999273768
 20
81.62562398102755
 30
0.0
  0
POINT
  5
16E3
330
1598
100
AcDbEntity
  8
Defpoints
 62
     0
440
 16777216
100
AcDbPoint
 10
58.67952999273768
 20
81.29542398102818
 30
0.0
  0
POINT
  5
16E4
330
1598
100
AcDbEntity
  8
Defpoints
 62
     0
440
 16777216
100
AcDbPoint
 10
58.18778876306382
 20
81.29542398102818
 30
0.0
  0
ENDBLK
  5
159A
330
1598
100
AcDbEntity
  8
0
100
AcDbBlockEnd
  0
BLOCK
  5
15B5
330
15B4
100
AcDbEntity
  8
0
100
AcDbBlockBegin
  2
*D29
 70
     1
 10
0.0
 20
0.0
 30
0.0
  3
*D29
  1

  0
LINE
  5
16E5
330
15B4
100
AcDbEntity
  8
0
 62
     0
440
 16777216
370
    -2
100
AcDbLine
 10
59.74633002773785
 20
81.62562398102755
 30
0.0
 11
59.74633002773785
 21
82.38562656052961
 31
0.0
  0
LINE
  5
16E6
330
15B4
100
AcDbEntity
  8
0
 62
     0
440
 16777216
370
    -2
100
AcDbLine
 10
60.00033002773768
 20
81.62562398102755
 30
0.0
 11
60.00033002773768
 21
82.38562656052961
 31
0.0
  0
LINE
  5
16E7
330
15B4
100
AcDbEntity
  8
0
 62
     0
440
 16777216
370
    -2
100
AcDbLine
 10
60.10033002773766
 20
82.28562656052961
 30
0.0
 11
60.20033002773768
 21
82.28562656052961
 31
0.0
  0
LINE
  5
16E8
330
15B4
100
AcDbEntity
  8
0
 62
     0
440
 16777216
370
    -2
100
AcDbLine
 10
59.64633002773785
 20
82.28562656052961
 30
0.0
 11
59.54633002773785
 21
82.28562656052961
 31
0.0
  0
SOLID
  5
16E9
330
15B4
100
AcDbEntity
  8
0
 62
     0
440
 16777216
100
AcDbTrace
 10
60.10033002773766
 20
82.30229322719628
 30
0.0
 11
60.10033002773766
 21
82.26895989386292
 31
0.0
 12
60.00033002773768
 22
82.28562656052961
 32
0.0
 13
60.00033002773768
 23
82.28562656052961
 33
0.0
  0
SOLID
  5
16EA
330
15B4
100
AcDbEntity
  8
0
 62
     0
440
 16777216
100
AcDbTrace
 10
59.64633002773785
 20
82.30229322719628
 30
0.0
 11
59.64633002773785
 21
82.26895989386292
 31
0.0
 12
59.74633002773785
 22
82.28562656052961
 32
0.0
 13
59.74633002773785
 23
82.28562656052961
 33
0.0
  0
MTEXT
  5
16EB
330
15B4
100
AcDbEntity
  8
0
 62
     0
440
 16777216
100
AcDbMText
 10
59.31607764028902
 20
82.28562656052961
 30
0.0
 40
0.1
 41
0.0
 46
0.0
 71
     5
 72
     1
  1
\A1;0.25
 73
     1
 44
1.0
  0
POINT
  5
16EC
330
15B4
100
AcDbEntity
  8
Defpoints
 62
     0
440
 16777216
100
AcDbPoint
 10
59.74633002773785
 20
81.62562398102755
 30
0.0
  0
POINT
  5
16ED
330
15B4
100
AcDbEntity
  8
Defpoints
 62
     0
440
 16777216
100
AcDbPoint
 10
60.00033002773768
 20
81.62562398102755
 30
0.0
  0
POINT
  5
16EE
330
15B4
100
AcDbEntity
  8
Defpoints
 62
     0
440
 16777216
100
AcDbPoint
 10
60.00033002773768
 20
82.28562656052961
 30
0.0
  0
ENDBLK
  5
15B6
330
15B4
100
AcDbEntity
  8
0
100
AcDbBlockEnd
  0
BLOCK
  5
1743
330
1742
100
AcDbEntity
  8
0
100
AcDbBlockBegin
  2
*D33
 70
     1
 10
0.0
 20
0.0
 30
0.0
  3
*D33
  1

  0
LINE
  5
1750
330
1742
100
AcDbEntity
  8
0
 62
     0
440
 16777216
370
    -2
100
AcDbLine
 10
64.60670748853067
 20
89.23115781365316
 30
0.0
 11
64.60670748853067
 21
88.66899815383812
 31
0.0
  0
LINE
  5
1751
330
1742
100
AcDbEntity
  8
0
 62
     0
440
 16777216
370
    -2
100
AcDbLine
 10
64.97575748853069
 20
89.23115781365316
 30
0.0
 11
64.97575748853069
 21
88.66899815383812
 31
0.0
  0
LINE
  5
1752
330
1742
100
AcDbEntity
  8
0
 62
     0
440
 16777216
370
    -2
100
AcDbLine
 10
64.50670748853068
 20
88.76899815383813
 30
0.0
 11
64.40670748853067
 21
88.76899815383813
 31
0.0
  0
LINE
  5
1753
330
1742
100
AcDbEntity
  8
0
 62
     0
440
 16777216
370
    -2
100
AcDbLine
 10
65.07575748853068
 20
88.76899815383813
 30
0.0
 11
65.17575748853068
 21
88.76899815383813
 31
0.0
  0
SOLID
  5
1754
330
1742
100
AcDbEntity
  8
0
 62
     0
440
 16777216
100
AcDbTrace
 10
64.50670748853068
 20
88.78566482050478
 30
0.0
 11
64.50670748853068
 21
88.75233148717146
 31
0.0
 12
64.60670748853067
 22
88.76899815383813
 32
0.0
 13
64.60670748853067
 23
88.76899815383813
 33
0.0
  0
SOLID
  5
1755
330
1742
100
AcDbEntity
  8
0
 62
     0
440
 16777216
100
AcDbTrace
 10
65.07575748853068
 20
88.78566482050478
 30
0.0
 11
65.07575748853068
 21
88.75233148717146
 31
0.0
 12
64.97575748853069
 22
88.76899815383813
 32
0.0
 13
64.97575748853069
 23
88.76899815383813
 33
0.0
  0
MTEXT
  5
1756
330
1742
100
AcDbEntity
  8
0
 62
     0
440
 16777216
100
AcDbMText
 10
65.40563470544746
 20
88.76899815383813
 30
0.0
 40
0.1
 41
0.0
 46
0.0
 71
     5
 72
     1
  1
\A1;0.37
 73
     1
 44
1.0
  0
POINT
  5
1757
330
1742
100
AcDbEntity
  8
Defpoints
 62
     0
440
 16777216
100
AcDbPoint
 10
64.60670748853067
 20
89.23115781365316
 30
0.0
  0
POINT
  5
1758
330
1742
100
AcDbEntity
  8
Defpoints
 62
     0
440
 16777216
100
AcDbPoint
 10
64.97575748853069
 20
89.23115781365316
 30
0.0
  0
POINT
  5
1759
330
1742
100
AcDbEntity
  8
Defpoints
 62
     0
440
 16777216
100
AcDbPoint
 10
64.97575748853069
 20
88.76899815383813
 30
0.0
  0
ENDBLK
  5
1744
330
1742
100
AcDbEntity
  8
0
100
AcDbBlockEnd
  0
BLOCK
  5
175D
330
175C
100
AcDbEntity
  8
0
100
AcDbBlockBegin
  2
*D34
 70
     1
 10
0.0
 20
0.0
 30
0.0
  3
*D34
  1

  0
LINE
  5
176A
330
175C
100
AcDbEntity
  8
0
 62
     0
440
 16777216
370
    -2
100
AcDbLine
 10
64.70487141469421
 20
90.21115781365322
 30
0.0
 11
65.8048714146942
 21
90.21115781365322
 31
0.0
  0
LINE
  5
176B
330
175C
100
AcDbEntity
  8
0
 62
     0
440
 16777216
370
    -2
100
AcDbLine
 10
64.70487141469421
 20
89.2311578136532
 30
0.0
 11
65.8048714146942
 21
89.2311578136532
 31
0.0
  0
LINE
  5
176C
330
175C
100
AcDbEntity
  8
0
 62
     0
440
 16777216
370
    -2
100
AcDbLine
 10
65.70487141469421
 20
90.11115781365324
 30
0.0
 11
65.70487141469421
 21
89.87221511242537
 31
0.0
  0
LINE
  5
176D
330
175C
100
AcDbEntity
  8
0
 62
     0
440
 16777216
370
    -2
100
AcDbLine
 10
65.70487141469421
 20
89.33115781365318
 30
0.0
 11
65.70487141469421
 21
89.57010051488103
 31
0.0
  0
SOLID
  5
176E
330
175C
100
AcDbEntity
  8
0
 62
     0
440
 16777216
100
AcDbTrace
 10
65.68820474802753
 20
90.11115781365324
 30
0.0
 11
65.72153808136086
 21
90.11115781365324
 31
0.0
 12
65.70487141469421
 22
90.21115781365322
 32
0.0
 13
65.70487141469421
 23
90.21115781365322
 33
0.0
  0
SOLID
  5
176F
330
175C
100
AcDbEntity
  8
0
 62
     0
440
 16777216
100
AcDbTrace
 10
65.68820474802753
 20
89.33115781365318
 30
0.0
 11
65.72153808136086
 21
89.33115781365318
 31
0.0
 12
65.70487141469421
 22
89.2311578136532
 32
0.0
 13
65.70487141469421
 23
89.2311578136532
 33
0.0
  0
MTEXT
  5
1770
330
175C
100
AcDbEntity
  8
0
 62
     0
440
 16777216
100
AcDbMText
 10
65.70487141469421
 20
89.72115781365316
 30
0.0
 40
0.1
 41
0.0
 46
0.0
 71
     5
 72
     1
  1
\A1;0.98
 73
     1
 44
1.0
  0
POINT
  5
1771
330
175C
100
AcDbEntity
  8
Defpoints
 62
     0
440
 16777216
100
AcDbPoint
 10
64.6067074885307
 20
90.21115781365322
 30
0.0
  0
POINT
  5
1772
330
175C
100
AcDbEntity
  8
Defpoints
 62
     0
440
 16777216
100
AcDbPoint
 10
64.6067074885307
 20
89.2311578136532
 30
0.0
  0
POINT
  5
1773
330
175C
100
AcDbEntity
  8
Defpoints
 62
     0
440
 16777216
100
AcDbPoint
 10
65.70487141469421
 20
89.2311578136532
 30
0.0
  0
ENDBLK
  5
175E
330
175C
100
AcDbEntity
  8
0
100
AcDbBlockEnd
  0
BLOCK
  5
1777
330
1776
100
AcDbEntity
  8
0
100
AcDbBlockBegin
  2
*D35
 70
     1
 10
0.0
 20
0.0
 30
0.0
  3
*D35
  1

  0
LINE
  5
1779
330
1776
100
AcDbEntity
  8
0
 62
     0
440
 16777216
370
    -2
100
AcDbLine
 10
64.60670748853067
 20
90.2111578136532
 30
0.0
 11
64.60670748853067
 21
90.91443993055598
 31
0.0
  0
LINE
  5
177A
330
1776
100
AcDbEntity
  8
0
 62
     0
440
 16777216
370
    -2
100
AcDbLine
 10
63.9571312092679
 20
90.2111578136532
 30
0.0
 11
63.9571312092679
 21
90.91443993055598
 31
0.0
  0
LINE
  5
177B
330
1776
100
AcDbEntity
  8
0
 62
     0
440
 16777216
370
    -2
100
AcDbLine
 10
64.70670748853065
 20
90.81443993055598
 30
0.0
 11
64.80670748853068
 21
90.81443993055598
 31
0.0
  0
LINE
  5
177C
330
1776
100
AcDbEntity
  8
0
 62
     0
440
 16777216
370
    -2
100
AcDbLine
 10
63.85713120926791
 20
90.81443993055598
 30
0.0
 11
63.7571312092679
 21
90.81443993055598
 31
0.0
  0
SOLID
  5
177D
330
1776
100
AcDbEntity
  8
0
 62
     0
440
 16777216
100
AcDbTrace
 10
64.70670748853065
 20
90.83110659722263
 30
0.0
 11
64.70670748853065
 21
90.79777326388931
 31
0.0
 12
64.60670748853067
 22
90.81443993055598
 32
0.0
 13
64.60670748853067
 23
90.81443993055598
 33
0.0
  0
SOLID
  5
177E
330
1776
100
AcDbEntity
  8
0
 62
     0
440
 16777216
100
AcDbTrace
 10
63.85713120926791
 20
90.83110659722263
 30
0.0
 11
63.85713120926791
 21
90.79777326388931
 31
0.0
 12
63.9571312092679
 22
90.81443993055598
 32
0.0
 13
63.9571312092679
 23
90.81443993055598
 33
0.0
  0
MTEXT
  5
177F
330
1776
100
AcDbEntity
  8
0
 62
     0
440
 16777216
100
AcDbMText
 10
64.28191934889929
 20
90.81443993055598
 30
0.0
 40
0.1
 41
0.0
 46
0.0
 71
     5
 72
     1
  1
\A1;0.65
 73
     1
 44
1.0
  0
POINT
  5
1780
330
1776
100
AcDbEntity
  8
Defpoints
 62
     0
440
 16777216
100
AcDbPoint
 10
64.60670748853067
 20
90.2111578136532
 30
0.0
  0
POINT
  5
1781
330
1776
100
AcDbEntity
  8
Defpoints
 62
     0
440
 16777216
100
AcDbPoint
 10
63.9571312092679
 20
90.2111578136532
 30
0.0
  0
POINT
  5
1782
330
1776
100
AcDbEntity
  8
Defpoints
 62
     0
440
 16777216
100
AcDbPoint
 10
63.9571312092679
 20
90.81443993055598
 30
0.0
  0
ENDBLK
  5
1778
330
1776
100
AcDbEntity
  8
0
100
AcDbBlockEnd
  0
ENDSEC
  0
SECTION
  2
ENTITIES
  0
LWPOLYLINE
  5
249
102
{ACAD_REACTORS
330
337
330
351
102
}
330
1F
100
AcDbEntity
  8
_part_outline
 62
     0
100
AcDbPolyline
 90
        4
 70
     1
 43
0.0
 10
59.87607803303466
 20
90.36520781365329
 10
57.83797803303468
 20
90.36520781365329
 10
57.83797803303468
 20
89.07710781365308
 10
59.87607803303466
 20
89.07710781365308
  0
CIRCLE
  5
252
330
1F
100
AcDbEntity
  8
0
100
AcDbCircle
 10
59.66702803303462
 20
89.7211578136534
 30
0.0
 40
0.125
  0
CIRCLE
  5
257
330
1F
100
AcDbEntity
  8
0
100
AcDbCircle
 10
59.66702803303462
 20
89.7211578136534
 30
0.0
 40
0.125
  0
MTEXT
  5
25D
330
1F
100
AcDbEntity
  8
_Notes
100
AcDbMText
 10
57.75838473574429
 20
91.7208009187235
 30
0.0
 40
0.3
 41
8.402279119008369
 46
0.0
 71
     1
 72
     5
  1
X4C 0805 Size Generic Component Outline 
 73
     1
 44
1.0
  0
LWPOLYLINE
  5
25E
102
{ACAD_REACTORS
330
401
330
175A
102
}
330
1F
100
AcDbEntity
  8
_part_outline
 62
     0
100
AcDbPolyline
 90
        4
 70
     1
 43
0.0
 10
62.9376574885307
 20
90.36520781365329
 10
64.97575748853069
 20
90.36520781365329
 10
64.97575748853069
 20
89.07710781365308
 10
62.9376574885307
 20
89.07710781365308
  0
LWPOLYLINE
  5
266
102
{ACAD_REACTORS
330
476
102
}
330
1F
100
AcDbEntity
  8
0
100
AcDbPolyline
 90
        8
 70
     1
 43
0.0
 10
63.15670748853074
 20
89.15115781365324
 10
63.15670748853074
 20
89.31115781365308
 42
-0.4142135623730951
 10
63.18670748853072
 20
89.3411578136533
 10
63.42670748853072
 20
89.3411578136533
 42
-0.4142135623730951
 10
63.4567074885307
 20
89.31115781365308
 10
63.4567074885307
 20
89.15115781365324
 42
-0.4142135623730919
 10
63.42670748853072
 20
89.12115781365306
 10
63.18670748853072
 20
89.12115781365306
 42
-0.4142135623730951
  0
CIRCLE
  5
267
330
1F
100
AcDbEntity
  8
0
100
AcDbCircle
 10
63.14670748853075
 20
89.7211578136534
 30
0.0
 40
0.125
  0
LWPOLYLINE
  5
268
102
{ACAD_REACTORS
330
387
330
36B
102
}
330
1F
100
AcDbEntity
  8
0
100
AcDbPolyline
 90
        8
 70
     1
 43
0.0
 10
63.15670748853074
 20
90.29115781365312
 10
63.15670748853074
 20
90.13115781365327
 42
0.4142135623730951
 10
63.18670748853072
 20
90.10115781365305
 10
63.42670748853072
 20
90.10115781365305
 42
0.4142135623730951
 10
63.4567074885307
 20
90.13115781365327
 10
63.4567074885307
 20
90.29115781365312
 42
0.4142135623730919
 10
63.42670748853072
 20
90.32115781365332
 10
63.18670748853072
 20
90.32115781365332
 42
0.4142135623730951
  0
LWPOLYLINE
  5
269
330
1F
100
AcDbEntity
  8
0
100
AcDbPolyline
 90
        8
 70
     1
 43
0.0
 10
64.4567074885307
 20
89.15115781365324
 10
64.4567074885307
 20
89.31115781365308
 42
-0.4142135623730951
 10
64.48670748853067
 20
89.3411578136533
 10
64.72670748853068
 20
89.3411578136533
 42
-0.4142135623730951
 10
64.75670748853065
 20
89.31115781365308
 10
64.75670748853065
 20
89.15115781365324
 42
-0.4142135623730919
 10
64.72670748853068
 20
89.12115781365306
 10
64.48670748853067
 20
89.12115781365306
 42
-0.4142135623730951
  0
LWPOLYLINE
  5
26A
102
{ACAD_REACTORS
330
47E
330
1774
102
}
330
1F
100
AcDbEntity
  8
0
100
AcDbPolyline
 90
        8
 70
     1
 43
0.0
 10
64.4567074885307
 20
90.29115781365312
 10
64.4567074885307
 20
90.13115781365327
 42
0.4142135623730951
 10
64.48670748853067
 20
90.10115781365305
 10
64.72670748853068
 20
90.10115781365305
 42
0.4142135623730951
 10
64.75670748853065
 20
90.13115781365327
 10
64.75670748853065
 20
90.29115781365312
 42
0.4142135623730919
 10
64.72670748853068
 20
90.32115781365332
 10
64.48670748853067
 20
90.32115781365332
 42
0.4142135623730951
  0
LWPOLYLINE
  5
26B
102
{ACAD_REACTORS
330
44F
330
470
102
}
330
1F
100
AcDbEntity
  8
0
100
AcDbPolyline
 90
       12
 70
     1
 43
0.0
 10
63.80713120926793
 20
89.3411578136525
 10
63.80713120926793
 20
89.15115781365248
 42
0.4142135623730951
 10
63.8371312092679
 20
89.12115781365253
 10
64.07713120926792
 20
89.12115781365253
 42
0.4142135623730919
 10
64.10713120926789
 20
89.15115781365248
 10
64.10713120926789
 20
89.3411578136525
 10
64.10713120926789
 20
90.10115781365248
 10
64.10713120926789
 20
90.29115781365247
 42
0.4142135623730919
 10
64.07713120926792
 20
90.32115781365247
 10
63.8371312092679
 20
90.32115781365247
 42
0.4142135623730951
 10
63.80713120926793
 20
90.29115781365247
 10
63.80713120926793
 20
90.10115781365248
  0
CIRCLE
  5
26C
102
{ACAD_REACTORS
330
435
102
}
330
1F
100
AcDbEntity
  8
0
100
AcDbCircle
 10
63.14670748853075
 20
89.7211578136534
 30
0.0
 40
0.125
  0
DIMENSION
  5
31E
102
{ACAD_XDICTIONARY
360
32C
102
}
102
{ACAD_REACTORS
330
337
102
}
330
1F
100
AcDbEntity
  8
Dimensions
100
AcDbDimension
280
     0
  2
*D1
 10
59.87607803303466
 20
90.77662433087757
 30
0.0
 11
58.85702803303468
 21
90.77662433087757
 31
0.0
 70
    32
 71
     5
 42
2.038099999999984
 73
     0
 74
     0
 75
     0
  3
Bing_1
100
AcDbAlignedDimension
 13
57.83797803303468
 23
90.36520781365329
 33
0.0
 14
59.87607803303466
 24
90.36520781365329
 34
0.0
100
AcDbRotatedDimension
1001
ACAD
1000
DSTYLE
1002
{
1070
    47
1040
0.1
1070
   147
1040
0.1
1070
    48
1040
0.1
1070
    72
1070
     0
1070
    71
1070
     1
1002
}
  0
DIMENSION
  5
338
102
{ACAD_XDICTIONARY
360
346
102
}
102
{ACAD_REACTORS
330
351
102
}
330
1F
100
AcDbEntity
  8
Dimensions
100
AcDbDimension
280
     0
  2
*D2
 10
60.34719696805345
 20
89.07710781365308
 30
0.0
 11
60.34719696805346
 21
89.72115781365316
 31
0.0
 70
    32
 71
     5
 42
1.288100000000212
 73
     0
 74
     0
 75
     0
  3
Bing_1
100
AcDbAlignedDimension
 13
59.87607803303466
 23
90.36520781365329
 33
0.0
 14
59.87607803303466
 24
89.07710781365308
 34
0.0
 50
90.0
100
AcDbRotatedDimension
1001
ACAD
1000
DSTYLE
1002
{
1070
    47
1040
0.1
1070
    48
1040
0.1
1070
    71
1070
     1
1002
}
  0
DIMENSION
  5
352
102
{ACAD_XDICTIONARY
360
360
102
}
102
{ACAD_REACTORS
330
36B
102
}
330
1F
100
AcDbEntity
  8
Dimensions
100
AcDbDimension
280
     0
  2
*D3
 10
63.4567074885307
 20
90.71887732068724
 30
0.0
 11
62.68815360039977
 21
90.71887732068724
 31
0.0
 70
   160
 71
     5
 42
0.2999999999999545
 73
     0
 74
     0
 75
     0
  3
Bing_1
100
AcDbAlignedDimension
 13
63.15670748853074
 23
90.2111578136532
 33
0.0
 14
63.4567074885307
 24
90.2111578136532
 34
0.0
100
AcDbRotatedDimension
  0
DIMENSION
  5
36C
102
{ACAD_XDICTIONARY
360
37B
102
}
102
{ACAD_REACTORS
330
387
102
}
330
1F
100
AcDbEntity
  8
Dimensions
100
AcDbDimension
280
     0
  2
*D4
 10
62.60050495192867
 20
90.10115781365309
 30
0.0
 11
62.92987057266539
 21
90.52115781365332
 31
0.0
 70
   160
 71
     5
 42
0.2200000000002547
 73
     0
 74
     0
 75
     0
  3
Bing_1
100
AcDbAlignedDimension
 13
63.30670748853072
 23
90.32115781365332
 33
0.0
 14
63.30670748853072
 24
90.10115781365305
 34
0.0
 50
90.0
100
AcDbRotatedDimension
  0
DIMENSION
  5
3E6
102
{ACAD_XDICTIONARY
360
3F5
102
}
102
{ACAD_REACTORS
330
401
102
}
330
1F
100
AcDbEntity
  8
Dimensions
100
AcDbDimension
280
     0
  2
*D7
 10
65.11555515613046
 20
89.07710781365308
 30
0.0
 11
65.44580754357932
 21
89.5145896948793
 31
0.0
 70
   160
 71
     5
 42
0.1540500000000975
 73
     0
 74
     0
 75
     0
  3
Bing_1
100
AcDbAlignedDimension
 13
64.60670748853067
 23
89.23115781365316
 33
0.0
 14
64.60670748853067
 24
89.07710781365308
 34
0.0
 50
90.0
100
AcDbRotatedDimension
  0
MULTILEADER
  5
433
102
{ACAD_XDICTIONARY
360
434
102
}
102
{ACAD_REACTORS
330
435
102
}
330
1F
100
AcDbEntity
  8
Dimensions
160
               844
310
4C030000190000000C00000016000000000000C00C00000033000000000000000C00000013000000993A0000C800000026000000892955D1D9DB4E40D3343C124B615640000000000000000000000000000000000000000000000000000000000000F03F000000000000F03F000000000000000000000000000000004F0072
310
00690065006E0074006100740069006F006E0000000B000000010000009A9999999999B93F000000000000F03F0000000000000000000000000000F03F00000000000000000000000000000000000000000000000000000000010000002200000041007200690061006C0000000000000000000000C0000000260000002C6C
310
BB9935FA4E40288A9167A0565640000000000000000000000000000000000000000000000000000000000000F03F000000000000F03F000000000000000000000000000000004D00610072006B00650072000000430006000000010000009A9999999999B93F000000000000F03F0000000000000000000000000000F03F00
310
000000000000000000000000000000000000000000000000000000010000002200000041007200690061006C00000000000000000000000C00000033000000000000000C00000010000000050000000C00000016000000000000C00C00000012000000FF7F00000C00000013000000010000000C0000001400000001000000
310
540000000700000003000000693464AAEC754F40915DD4C7436D56400000000000000000B0A89C4FC7824F405C391A73276E5640000000000000000043C92C3732774F40975606783A6B564000000000000000000C00000014000000010000000C00000013000000891300003C0000000600000002000000D67EC8708F764F
310
40145AED1F3F6C564000000000000000005F2A09114A454F4017E0E8EA8D64564000000000000000000C00000013000000112700003C00000006000000020000005F2A09114A454F4017E0E8EA8D6456400000000000000000925D3C447D384F4017E0E8EA8D64564000000000000000000C00000016000000000000C00C00
310
000012000000FF7F00000C00000017000000000000000C000000130000009A3A00000C00000016000000000000C00C00000012000000FF7F00000C00000017000000FFFFFFFF0C0000003300000000000000
100
AcDbMLeader
270
     2
300
CONTEXT_DATA{
 40
1.0
 10
61.67433783842849
 20
89.57116196386083
 30
0.0
 41
0.1
140
0.1
145
0.05
174
     1
175
     1
176
     2
177
     0
290
     1
304
Orientation Marker
 11
0.0
 21
0.0
 31
1.0
340
11
 12
62.3913228316072
 22
89.62198051774898
 32
0.0
 13
1.0
 23
0.0
 33
0.0
 42
0.0
 43
0.6551770189722676
 44
0.0
 45
1.0
170
     1
 90
-1073741824
171
     3
172
     5
 91
-1073741824
141
0.0
 92
        0
291
     0
292
     0
173
     0
293
     0
142
0.0
143
0.0
294
     0
295
     0
296
     0
110
63.02170748853075
120
89.7211578136534
130
0.0
111
1.0
121
0.0
131
0.0
112
0.0
122
1.0
132
0.0
297
     0
302
LEADER{
290
     1
291
     1
 10
62.5413228316072
 20
89.57116196386083
 30
0.0
 11
-1.0
 21
0.0
 31
0.0
 90
        0
 40
0.1
304
LEADER_LINE{
 10
63.02170748853075
 20
89.7211578136534
 30
0.0
 91
        0
305
}
271
     0
303
}
272
     9
273
     9
301
}
340
432
 90
   279552
170
     1
 91
-1056964608
341
14
171
    -2
290
     1
291
     1
 41
0.1
 42
0.1
172
     2
343
11
173
     1
 95
        1
174
     1
175
     2
 92
-1056964608
292
     0
 93
-1056964608
 10
1.0
 20
1.0
 30
1.0
 43
0.0
176
     0
293
     0
294
     0
178
     0
179
     3
 45
1.0
271
     0
272
     9
273
     9
295
     0
  0
DIMENSION
  5
436
102
{ACAD_XDICTIONARY
360
444
102
}
102
{ACAD_REACTORS
330
44F
102
}
330
1F
100
AcDbEntity
  8
Dimensions
100
AcDbDimension
280
     0
  2
*D9
 10
64.10713120926789
 20
88.70032843111593
 30
0.0
 11
63.33453783820353
 21
88.70032843111593
 31
0.0
 70
   160
 71
     5
 42
0.2999999999999545
 73
     0
 74
     0
 75
     0
  3
Bing_1
100
AcDbAlignedDimension
 13
63.80713120926793
 23
89.20537591693415
 33
0.0
 14
64.10713120926789
 24
89.20537591693415
 34
0.0
100
AcDbRotatedDimension
  0
MULTILEADER
  5
46E
102
{ACAD_XDICTIONARY
360
46F
102
}
102
{ACAD_REACTORS
330
470
102
}
330
1F
100
AcDbEntity
  8
Dimensions
160
               636
310
7C020000180000000C00000016000000000000C00C00000033000000000000000C00000013000000993A0000B8000000260000004D4F1F55A30C4F40E98130FFBD415640000000000000000000000000000000000000000000000000000000000000F03F000000000000F03F0000000000000000000000000000000047004E
310
004400000003000000010000009A9999999999B93F000000000000F03F0000000000000000000000000000F03F00000000000000000000000000000000000000000000000000000000010000002200000041007200690061006C000000000000000000FFFF0C00000033000000000000000C00000010000000050000000C00
310
000016000000000000C00C00000012000000FF7F00000C00000013000000010000000C000000140000000100000054000000070000000300000002852FA9F2DA4F4042DDEF812F6C564000000000000000007FB1511350E74F401C391A73276E56400000000000000000BFD74CA5E4DC4F40BD9CEC6F496A56400000000000
310
0000000C00000014000000010000000C00000013000000891300003C0000000600000002000000602E3EA7EBDB4F40FF3CEE783C6B564000000000000000008092FD479F464F40BFBBB42AFF44564000000000000000000C00000013000000112700003C00000006000000020000008092FD479F464F40BFBBB42AFF445640
310
0000000000000000B3C5307BD2394F40BFBBB42AFF44564000000000000000000C00000016000000000000C00C00000012000000FF7F00000C00000017000000000000000C000000130000009A3A00000C00000016000000000000C00C00000012000000FF7F00000C00000017000000FFFFFFFF0C00000033000000000000
310
00
100
AcDbMLeader
270
     2
300
CONTEXT_DATA{
 40
1.0
 10
62.05616971042093
 20
89.07807414674515
 30
0.0
 41
0.1
140
0.1
145
0.05
174
     1
175
     1
176
     2
177
     0
290
     1
304
GND
 11
0.0
 21
0.0
 31
1.0
340
11
 12
62.40173587686022
 22
89.12892680704528
 32
0.0
 13
1.0
 23
0.0
 33
0.0
 42
0.0
 43
0.3441448484179546
 44
0.0
 45
1.0
170
     1
 90
-1073741824
171
     3
172
     5
 91
-1073741824
141
0.0
 92
        0
291
     0
292
     0
173
     0
293
     0
142
0.0
143
0.0
294
     0
295
     0
296
     0
110
63.80713120926793
120
89.7211578136525
130
0.0
111
1.0
121
0.0
131
0.0
112
0.0
122
1.0
132
0.0
297
     0
302
LEADER{
290
     1
291
     1
 10
62.55173587686022
 20
89.07807414674515
 30
0.0
 11
-1.0
 21
0.0
 31
0.0
 90
        0
 40
0.1
304
LEADER_LINE{
 10
63.80713120926793
 20
89.7211578136525
 30
0.0
 91
        0
305
}
271
     0
303
}
272
     9
273
     9
301
}
340
432
 90
   279552
170
     1
 91
-1056964608
341
14
171
    -2
290
     1
291
     1
 41
0.1
 42
0.1
172
     2
343
11
173
     1
 95
        1
174
     1
175
     2
 92
-1056964608
292
     0
 93
-1056964608
 10
1.0
 20
1.0
 30
1.0
 43
0.0
176
     0
293
     0
294
     0
178
     0
179
     3
 45
1.0
271
     0
272
     9
273
     9
295
     0
  0
MULTILEADER
  5
474
102
{ACAD_XDICTIONARY
360
475
102
}
102
{ACAD_REACTORS
330
476
102
}
330
1F
100
AcDbEntity
  8
Dimensions
160
               632
310
78020000180000000C00000016000000000000C00C00000033000000000000000C00000013000000993A0000B400000026000000A1D500B668C94F40158C4652BA365640000000000000000000000000000000000000000000000000000000000000F03F000000000000F03F00000000000000000000000000000000340000
310
0001000000010000009A9999999999B93F000000000000F03F0000000000000000000000000000F03F00000000000000000000000000000000000000000000000000000000010000002200000041007200690061006C00000000000000000000000C00000033000000000000000C00000010000000050000000C0000001600
310
0000000000C00C00000012000000FF7F00000C00000013000000010000000C0000001400000001000000540000000700000003000000262525138CAB4F40BD0AB661A14156400000000000000000C056E43042A74F40DDD2B30CC14756400000000000000000B14F6C9849AF4F405A1BDC27A842564000000000000000000C
310
00000014000000010000000C00000013000000891300003C00000006000000020000006BBAC8D56AAD4F400C13C9C424425640000000000000000091A947A06FB64F4049BF7985ED39564000000000000000000C00000013000000112700003C000000060000000200000091A947A06FB64F4049BF7985ED39564000000000
310
000000005E76146D3CC34F4049BF7985ED39564000000000000000000C00000016000000000000C00C00000012000000FF7F00000C00000017000000000000000C000000130000009A3A00000C00000016000000000000C00C00000012000000FF7F00000C00000017000000FFFFFFFF0C0000003300000000000000
100
AcDbMLeader
270
     2
300
CONTEXT_DATA{
 40
1.0
 10
63.52528155802859
 20
88.90512215508818
 30
0.0
 41
0.1
140
0.1
145
0.05
174
     1
175
     1
176
     0
177
     0
290
     1
304
4
 11
0.0
 21
0.0
 31
1.0
340
11
 12
63.57528155802857
 22
88.95512215508817
 32
0.0
 13
1.0
 23
0.0
 33
0.0
 42
0.0
 43
0.0920393301739751
 44
0.0
 45
1.0
170
     1
 90
-1073741824
171
     1
172
     5
 91
-1073741824
141
0.0
 92
        0
291
     0
292
     0
173
     0
293
     0
142
0.0
143
0.0
294
     0
295
     0
296
     0
110
63.30670748853072
120
89.12115781365306
130
0.0
111
1.0
121
0.0
131
0.0
112
0.0
122
1.0
132
0.0
297
     0
302
LEADER{
290
     1
291
     1
 10
63.4252815580286
 20
88.90512215508818
 30
0.0
 11
1.0
 21
0.0
 31
0.0
 90
        0
 40
0.1
304
LEADER_LINE{
 10
63.30670748853072
 20
89.12115781365306
 30
0.0
 91
        0
305
}
271
     0
303
}
272
     9
273
     9
301
}
340
432
 90
   279552
170
     1
 91
-1056964608
341
14
171
    -2
290
     1
291
     1
 41
0.1
 42
0.1
172
     2
343
11
173
     1
 95
        1
174
     1
175
     0
 92
-1056964608
292
     0
 93
-1056964608
 10
1.0
 20
1.0
 30
1.0
 43
0.0
176
     0
293
     0
294
     0
178
     0
179
     1
 45
1.0
271
     0
272
     9
273
     9
295
     0
  0
MULTILEADER
  5
47A
330
1F
100
AcDbEntity
  8
Dimensions
160
               632
310
78020000180000000C00000016000000000000C00C00000033000000000000000C00000013000000993A0000B40000002600000039FE5D86BF0B5040394352F221365640000000000000000000000000000000000000000000000000000000000000F03F000000000000F03F00000000000000000000000000000000330000
310
0001000000010000009A9999999999B93F000000000000F03F0000000000000000000000000000F03F00000000000000000000000000000000000000000000000000000000010000002200000041007200690061006C00000000000000000000000C00000033000000000000000C00000010000000050000000C0000001600
310
0000000000C00C00000012000000FF7F00000C00000013000000010000000C0000001400000001000000540000000700000003000000E93915F6C421504041F0F652B14356400000000000000000905EA54BD4265040DDD2B30CC14756400000000000000000324007305C235040C08FC46A4542564000000000000000000C
310
00000014000000010000000C00000013000000891300003C00000006000000020000000E3D0E939022504001C0DD5EFB425640000000000000000011EC2122EA19504064BAC8524D39564000000000000000000C00000013000000112700003C000000060000000200000011EC2122EA19504064BAC8524D39564000000000
310
00000000AB85BBBB8313504064BAC8524D39564000000000000000000C00000016000000000000C00C00000012000000FF7F00000C00000017000000000000000C000000130000009A3A00000C00000016000000000000C00C00000012000000FF7F00000C00000017000000FFFFFFFF0C0000003300000000000000
100
AcDbMLeader
270
     2
300
CONTEXT_DATA{
 40
1.0
 10
64.13943105333615
 20
88.89534444429733
 30
0.0
 41
0.1
140
0.1
145
0.05
174
     1
175
     1
176
     2
177
     0
290
     1
304
3
 11
0.0
 21
0.0
 31
1.0
340
11
 12
64.25491536438663
 22
88.94623121100947
 32
0.0
 13
1.0
 23
0.0
 33
0.0
 42
0.0
 43
0.0881285188387438
 44
0.0
 45
1.0
170
     1
 90
-1073741824
171
     3
172
     5
 91
-1073741824
141
0.0
 92
        0
291
     0
292
     0
173
     0
293
     0
142
0.0
143
0.0
294
     0
295
     0
296
     0
110
64.60670748853067
120
89.12115781365306
130
0.0
111
1.0
121
0.0
131
0.0
112
0.0
122
1.0
132
0.0
297
     0
302
LEADER{
290
     1
291
     1
 10
64.40491536438663
 20
88.89534444429733
 30
0.0
 11
-1.0
 21
0.0
 31
0.0
 90
        0
 40
0.1
304
LEADER_LINE{
 10
64.60670748853067
 20
89.12115781365306
 30
0.0
 91
        0
305
}
271
     0
303
}
272
     9
273
     9
301
}
340
432
 90
   279552
170
     1
 91
-1056964608
341
14
171
    -2
290
     1
291
     1
 41
0.1
 42
0.1
172
     2
343
11
173
     1
 95
        1
174
     1
175
     2
 92
-1056964608
292
     0
 93
-1056964608
 10
1.0
 20
1.0
 30
1.0
 43
0.0
176
     0
293
     0
294
     0
178
     0
179
     3
 45
1.0
271
     0
272
     9
273
     9
295
     0
  0
MULTILEADER
  5
47B
330
1F
100
AcDbEntity
  8
Dimensions
160
               632
310
78020000180000000C00000016000000000000C00C00000033000000000000000C00000013000000993A0000B400000026000000F9D4737253D54F405EB952397C9F5640000000000000000000000000000000000000000000000000000000000000F03F000000000000F03F00000000000000000000000000000000310000
310
0001000000010000009A9999999999B93F000000000000F03F0000000000000000000000000000F03F00000000000000000000000000000000000000000000000000000000010000002200000041007200690061006C00000000000000000000000C00000033000000000000000C00000010000000050000000C0000001600
310
0000000000C00C00000012000000FF7F00000C00000013000000010000000C000000140000000100000054000000070000000300000095907233E2B14F401EE0D96C479856400000000000000000C056E43042A74F40BC9F80D98D9456400000000000000000E2A84CA3E4AE4F40721699F6CC99564000000000000000000C
310
00000014000000010000000C00000013000000891300003C0000000600000002000000BB9C5F6B63B04F40487BB9310A99564000000000000000007FB739B212C44F4050B22721B6A2564000000000000000000C00000013000000112700003C00000006000000020000007FB739B212C44F4050B22721B6A2564000000000
310
000000004C84067FDFD04F4050B22721B6A2564000000000000000000C00000016000000000000C00C00000012000000FF7F00000C00000017000000000000000C000000130000009A3A00000C00000016000000000000C00C00000012000000FF7F00000C00000017000000FFFFFFFF0C0000003300000000000000
100
AcDbMLeader
270
     2
300
CONTEXT_DATA{
 40
1.0
 10
63.63182056253627
 20
90.54236630322089
 30
0.0
 41
0.1
140
0.1
145
0.05
174
     1
175
     1
176
     0
177
     0
290
     1
304
1
 11
0.0
 21
0.0
 31
1.0
340
11
 12
63.68182056253626
 22
90.59236630322088
 32
0.0
 13
1.0
 23
0.0
 33
0.0
 42
0.0
 43
0.0731023988211064
 44
0.0
 45
1.0
170
     1
 90
-1073741824
171
     1
172
     5
 91
-1073741824
141
0.0
 92
        0
291
     0
292
     0
173
     0
293
     0
142
0.0
143
0.0
294
     0
295
     0
296
     0
110
63.30670748853072
120
90.32115781365332
130
0.0
111
1.0
121
0.0
131
0.0
112
0.0
122
1.0
132
0.0
297
     0
302
LEADER{
290
     1
291
     1
 10
63.53182056253626
 20
90.54236630322089
 30
0.0
 11
1.0
 21
0.0
 31
0.0
 90
        0
 40
0.1
304
LEADER_LINE{
 10
63.30670748853072
 20
90.32115781365332
 30
0.0
 91
        0
305
}
271
     0
303
}
272
     9
273
     9
301
}
340
432
 90
   279552
170
     1
 91
-1056964608
341
14
171
    -2
290
     1
291
     1
 41
0.1
 42
0.1
172
     2
343
11
173
     1
 95
        1
174
     1
175
     0
 92
-1056964608
292
     0
 93
-1056964608
 10
1.0
 20
1.0
 30
1.0
 43
0.0
176
     0
293
     0
294
     0
178
     0
179
     1
 45
1.0
271
     0
272
     9
273
     9
295
     0
  0
MULTILEADER
  5
47C
102
{ACAD_XDICTIONARY
360
47D
102
}
102
{ACAD_REACTORS
330
47E
102
}
330
1F
100
AcDbEntity
  8
Dimensions
160
               632
310
78020000180000000C00000016000000000000C00C00000033000000000000000C00000013000000993A0000B400000026000000ED2073F3200F5040019D98F3AC9E5640000000000000000000000000000000000000000000000000000000000000F03F000000000000F03F00000000000000000000000000000000320000
310
0001000000010000009A9999999999B93F000000000000F03F0000000000000000000000000000F03F00000000000000000000000000000000000000000000000000000000010000002200000041007200690061006C0000000000A93F00009B270C00000033000000000000000C00000010000000050000000C0000001600
310
0000000000C00C00000012000000FF7F00000C00000013000000010000000C00000014000000010000005400000007000000030000007B44AB5CF523504032872E695F9A56400000000000000000905EA54BD4265040BC9F80D98D94564000000000000000008DBCB7FC39225040D8E787892099564000000000000000000C
310
00000014000000010000000C00000013000000891300003C00000006000000020000008480B1AC1723504085375BF9BF995640000000000000000068A0A2CB3A1D5040F3956DDBE6A1564000000000000000000C00000013000000112700003C000000060000000200000068A0A2CB3A1D5040F3956DDBE6A1564000000000
310
00000000023A3C65D4165040F3956DDBE6A1564000000000000000000C00000016000000000000C00C00000012000000FF7F00000C00000017000000000000000C000000130000009A3A00000C00000016000000000000C00C00000012000000FF7F00000C00000017000000FFFFFFFF0C0000003300000000000000
100
AcDbMLeader
270
     2
300
CONTEXT_DATA{
 40
1.0
 10
64.19047893737728
 20
90.529715401666
 30
0.0
 41
0.1
140
0.1
145
0.05
174
     1
175
     1
176
     2
177
     0
290
     1
304
2
 11
0.0
 21
0.0
 31
1.0
340
11
 12
64.30671358949187
 22
90.57971540166599
 32
0.0
 13
1.0
 23
0.0
 33
0.0
 42
0.0
 43
0.0757018818161441
 44
0.0
 45
1.0
170
     1
 90
-1073741824
171
     3
172
     5
 91
-1073741824
141
0.0
 92
        0
291
     0
292
     0
173
     0
293
     0
142
0.0
143
0.0
294
     0
295
     0
296
     0
110
64.60670748853067
120
90.32115781365332
130
0.0
111
1.0
121
0.0
131
0.0
112
0.0
122
1.0
132
0.0
297
     0
302
LEADER{
290
     1
291
     1
 10
64.45671358949187
 20
90.529715401666
 30
0.0
 11
-1.0
 21
0.0
 31
0.0
 90
        0
 40
0.1
304
LEADER_LINE{
 10
64.60670748853067
 20
90.32115781365332
 30
0.0
 91
        0
305
}
271
     0
303
}
272
     9
273
     9
301
}
340
432
 90
   279552
170
     1
 91
-1056964608
341
14
171
    -2
290
     1
291
     1
 41
0.1
 42
0.1
172
     2
343
11
173
     1
 95
        1
174
     1
175
     2
 92
-1056964608
292
     0
 93
-1056964608
 10
1.0
 20
1.0
 30
1.0
 43
0.0
176
     0
293
     0
294
     0
178
     0
179
     3
 45
1.0
271
     0
272
     9
273
     9
295
     0
  0
MTEXT
  5
492
330
1F
100
AcDbEntity
  8
_Notes
100
AcDbMText
 10
62.89898549537475
 20
78.64364156730653
 30
0.0
 40
0.18
 41
3.82736840727631
 46
0.0
 71
     1
 72
     5
  1
Tolerances are Non-Cumulative
 73
     1
 44
1.0
101
Embedded Object
 70
     1
 10
1.0
 20
0.0
 30
0.0
 11
62.89898549537475
 21
78.64364156730653
 31
0.0
 40
3.82736840727631
 41
0.0
 42
3.533574351978172
 43
0.1861391541609823
 71
     2
 72
     1
 44
3.82736840727631
 45
0.6
 73
     0
 74
     0
 46
0.0
  0
LWPOLYLINE
  5
667
102
{ACAD_REACTORS
330
674
102
}
330
1F
100
AcDbEntity
  8
0
100
AcDbPolyline
 90
        6
 70
     1
 43
0.0
 10
65.39156068306903
 20
79.78802488283569
 10
65.39156068306903
 20
80.12831086204874
 10
65.35106068306845
 20
80.30482398102774
 10
64.94466068306866
 20
80.30482398102774
 10
64.90416068306807
 20
80.12831086204945
 10
64.90416068306807
 20
79.78802488283642
  0
LWPOLYLINE
  5
668
102
{ACAD_REACTORS
330
671
330
67E
330
681
102
}
330
1F
100
AcDbEntity
  8
0
100
AcDbPolyline
 90
        4
 70
     1
 43
0.0
 10
64.94466068306866
 20
80.30482398102774
 10
65.35106068306845
 20
80.30482398102774
 10
65.35106068306845
 20
81.62562398102755
 10
64.94466068306866
 20
81.62562398102755
  0
CIRCLE
  5
669
330
1F
100
AcDbEntity
  8
0
100
AcDbCircle
 10
65.14786068306893
 20
80.00896787244283
 30
0.0
 40
0.1270000000001372
  0
LWPOLYLINE
  5
66A
102
{ACAD_REACTORS
330
681
330
684
330
1560
102
}
330
1F
100
AcDbEntity
  8
0
100
AcDbPolyline
 90
        6
 70
     1
 43
0.0
 10
65.39156068306903
 20
82.14242307921958
 10
65.39156068306903
 20
81.80213710000655
 10
65.35106068306845
 20
81.62562398102755
 10
64.94466068306866
 20
81.62562398102828
 10
64.90416068306807
 20
81.80213710000655
 10
64.90416068306807
 20
82.14242307921958
  0
CIRCLE
  5
66B
102
{ACAD_REACTORS
330
67B
102
}
330
1F
100
AcDbEntity
  8
0
100
AcDbCircle
 10
65.14786068306893
 20
81.9214800896132
 30
0.0
 40
0.1270000000001372
  0
CIRCLE
  5
66C
102
{ACAD_REACTORS
330
157C
102
}
330
1F
100
AcDbEntity
  8
0
100
AcDbCircle
 10
65.14786068306893
 20
80.96522398102766
 30
0.0
 40
0.1270000000001372
  0
CIRCLE
  5
66D
102
{ACAD_REACTORS
330
157C
102
}
330
1F
100
AcDbEntity
  8
0
100
AcDbCircle
 10
65.14786068306893
 20
81.44335203532023
 30
0.0
 40
0.1270000000001372
  0
CIRCLE
  5
66E
330
1F
100
AcDbEntity
  8
0
100
AcDbCircle
 10
65.14786068306893
 20
80.48709592673505
 30
0.0
 40
0.1270000000001372
  0
DIMENSION
  5
66F
102
{ACAD_XDICTIONARY
360
670
102
}
102
{ACAD_REACTORS
330
671
102
}
330
1F
100
AcDbEntity
  8
Dimensions
100
AcDbDimension
280
     0
  2
*D15
 10
65.35106068306845
 20
79.6475452773712
 30
0.0
 11
65.6712857853877
 21
79.6475452773712
 31
0.0
 70
    32
 71
     5
 42
0.4063999999997919
 73
     0
 74
     0
 75
     0
  3
Bing_1
100
AcDbAlignedDimension
 13
64.94466068306866
 23
80.96522398102766
 33
0.0
 14
65.35106068306845
 24
80.96522398102766
 34
0.0
100
AcDbRotatedDimension
  0
DIMENSION
  5
672
102
{ACAD_XDICTIONARY
360
673
102
}
102
{ACAD_REACTORS
330
674
102
}
330
1F
100
AcDbEntity
  8
Dimensions
100
AcDbDimension
280
     0
  2
*D16
 10
65.39156068306903
 20
79.3707887885114
 30
0.0
 11
65.14786068306856
 21
79.3707887885114
 31
0.0
 70
    32
 71
     5
 42
0.4874000000009461
 73
     0
 74
     0
 75
     0
  3
Bing_1
100
AcDbAlignedDimension
 13
64.90416068306807
 23
80.12831086204945
 33
0.0
 14
65.39156068306903
 24
80.12831086204874
 34
0.0
100
AcDbRotatedDimension
  0
MULTILEADER
  5
675
330
1F
100
AcDbEntity
  8
Dimensions
160
              1044
310
140400001A0000000C00000016000000000000C00C00000033000000000000000C00000013000000993A0000C000000026000000E390E0324E784F40242A96D068F55340000000000000000000000000000000000000000000000000000000000000F03F000000000000F03F0000000000000000000000000000000050006C
310
006100740065006400000000000600000001000000B81E85EB51B8BE3F000000000000F03F0000000000000000000000000000F03F00000000000000000000000000000000000000000000000000000000010000002200000041007200690061006C0000000000000000000000CC000000260000001D5DF2A063324F40575D
310
C9039CE85340000000000000000000000000000000000000000000000000000000000000F03F000000000000F03F000000000000000000000000000000007400680072006F00750067006800200068006F006C006500730000000D00000001000000B81E85EB51B8BE3F000000000000F03F00000000000000000000000000
310
00F03F00000000000000000000000000000000000000000000000000000000010000002200000041007200690061006C0000000000770000000000C400000026000000194F71DE795A4F408A90FC36CFDB5340000000000000000000000000000000000000000000000000000000000000F03F000000000000F03F00000000
310
00000000000000000000000074006F002000670072006F0075006E00640000000900000001000000B81E85EB51B8BE3F000000000000F03F0000000000000000000000000000F03F00000000000000000000000000000000000000000000000000000000010000002200000041007200690061006C00000000000000000000
310
000C00000033000000000000000C00000010000000050000000C00000016000000000000C00C00000012000000FF7F00000C00000013000000010000000C0000001400000001000000540000000700000003000000CEEF6C999837504029D100C7443754400000000000000000E2B7A4D65541504089A35CD3B63D54400000
310
00000000000003311185363A5040ABEEDE597534544000000000000000000C00000014000000010000000C00000013000000891300003C000000060000000200000069103F8FE7385040EADF6F10DD35544000000000000000009FDD7F9432ED4F40C59CFDD71EF8534000000000000000000C00000013000000112700003C
310
00000006000000020000009FDD7F9432ED4F40C59CFDD71EF853400000000000000000F1959E191EBF4F40C59CFDD71EF8534000000000000000000C00000016000000000000C00C00000012000000FF7F00000C00000017000000000000000C000000130000009A3A00000C00000016000000000000C00C00000012000000
310
FF7F00000C00000017000000FFFFFFFF0C0000003300000000000000
100
AcDbMLeader
270
     2
300
CONTEXT_DATA{
 40
1.0
 10
62.30661222057738
 20
79.87688255087694
 30
0.0
 41
0.12
140
0.18
145
0.09
174
     1
175
     1
176
     2
177
     0
290
     1
304
Plated  \Pthrough holes \Pto ground  
 11
0.0
 21
0.0
 31
1.0
340
11
 12
63.40310608142321
 22
79.95452238716615
 32
0.0
 13
1.0
 23
0.0
 33
0.0
 42
0.0
 43
1.056216578045662
 44
0.0
 45
1.0
170
     1
 90
-1073741824
171
     3
172
     5
 91
-1073741824
141
0.0
 92
        0
291
     0
292
     0
173
     0
293
     0
142
0.0
143
0.0
294
     0
295
     0
296
     0
110
65.18434361356208
120
79.88732085939822
130
0.0
111
1.0
121
0.0
131
0.0
112
0.0
122
1.0
132
0.0
297
     0
302
LEADER{
290
     1
291
     1
 10
63.85310608142321
 20
79.87688255087694
 30
0.0
 11
-1.0
 21
0.0
 31
0.0
 90
        0
 40
0.36
304
LEADER_LINE{
 10
65.02086416326304
 20
80.9642837910343
 30
0.0
 91
        0
305
}
271
     0
303
}
272
     9
273
     9
301
}
340
D8
 90
   345088
170
     1
 91
-1056964608
341
14
171
    -2
290
     1
291
     1
 41
0.36
 42
0.18
172
     2
343
11
173
     1
 95
        1
174
     1
175
     2
 92
-1056964608
292
     0
 93
-1056964608
 10
1.0
 20
1.0
 30
1.0
 43
0.0
176
     0
293
     0
294
     0
178
     0
179
     3
 45
1.0
271
     0
272
     9
273
     9
295
     0
  0
DIMENSION
  5
679
102
{ACAD_XDICTIONARY
360
67A
102
}
102
{ACAD_REACTORS
330
67B
102
}
330
1F
100
AcDbEntity
  8
Dimensions
100
AcDbDimension
280
     0
  2
*D10
 10
65.06684461799718
 20
81.82367724098225
 30
0.0
 11
66.14784839611826
 21
82.49589961596594
 31
0.0
 70
   163
 71
     5
 42
0.2540000000002607
 73
     0
 74
     0
 75
     0
  3
Bing_1
100
AcDbDiametricDimension
 15
65.22887674814064
 25
82.01928293824408
 35
0.0
 40
0.0
1001
ACAD_DSTYLE_DIMRADIAL_EXTENSION
1070
   387
1070
     1
1070
   388
1040
0.0
1070
   390
1040
0.0
  0
DIMENSION
  5
67C
102
{ACAD_XDICTIONARY
360
67D
102
}
102
{ACAD_REACTORS
330
67E
102
}
330
1F
100
AcDbEntity
  8
Dimensions
100
AcDbDimension
280
     0
  2
*D11
 10
63.27015819738753
 20
80.30482398102778
 30
0.0
 11
63.27015819738754
 21
80.96522398102766
 31
0.0
 70
    32
 71
     5
 42
1.320799999999791
 73
     0
 74
     0
 75
     0
  3
Bing_1
100
AcDbAlignedDimension
 13
64.94466068306866
 23
81.62562398102755
 33
0.0
 14
64.94466068306866
 24
80.30482398102774
 34
0.0
 50
90.0
100
AcDbRotatedDimension
  0
DIMENSION
  5
67F
102
{ACAD_XDICTIONARY
360
680
102
}
102
{ACAD_REACTORS
330
681
102
}
330
1F
100
AcDbEntity
  8
Dimensions
100
AcDbDimension
280
     0
  2
*D12
 10
63.61068129503829
 20
81.80213710000659
 30
0.0
 11
63.9406608311911
 21
82.00213710000657
 31
0.0
 70
    32
 71
     5
 42
0.1765131189790168
 73
     0
 74
     0
 75
     0
  3
Bing_1
100
AcDbAlignedDimension
 13
64.94466068306883
 23
81.62562398102755
 33
0.0
 14
64.90416068306807
 24
81.80213710000655
 34
0.0
 50
90.0
100
AcDbRotatedDimension
  0
DIMENSION
  5
682
102
{ACAD_XDICTIONARY
360
683
102
}
102
{ACAD_REACTORS
330
684
102
}
330
1F
100
AcDbEntity
  8
Dimensions
100
AcDbDimension
280
     0
  2
*D13
 10
63.01945726496307
 20
82.14242307921962
 30
0.0
 11
63.0194572649631
 21
81.97228008961308
 31
0.0
 70
    32
 71
     5
 42
0.3402859792130357
 73
     0
 74
     0
 75
     0
  3
Bing_1
100
AcDbAlignedDimension
 13
64.90416068306807
 23
81.80213710000655
 33
0.0
 14
64.90416068306807
 24
82.14242307921958
 34
0.0
 50
90.0
100
AcDbRotatedDimension
  0
MTEXT
  5
688
330
1F
100
AcDbEntity
  8
_Notes
100
AcDbMText
 10
63.04316712950775
 20
83.44730707447684
 30
0.0
 40
0.18
 41
3.853475058013336
 46
0.0
 71
     1
 72
     5
  1
Center GND Pad Dimensions
 73
     1
 44
1.0
101
Embedded Object
 70
     1
 10
1.0
 20
0.0
 30
0.0
 11
63.04316712950775
 21
83.44730707447684
 31
0.0
 40
3.853475058013336
 41
0.0
 42
3.261978171896316
 43
0.1861391541609823
 71
     2
 72
     1
 44
3.853475058013336
 45
0.6
 73
     0
 74
     0
 46
0.0
  0
LWPOLYLINE
  5
EE3
102
{ACAD_REACTORS
330
10DE
102
}
330
1F
100
AcDbEntity
  8
0
100
AcDbPolyline
 90
        6
 70
     1
 43
0.0
 10
59.78683002773844
 20
79.78802488283569
 10
59.78683002773844
 20
80.12831086204874
 10
59.74633002773785
 20
80.30482398102774
 10
59.33993002773807
 20
80.30482398102774
 10
59.2994300277375
 20
80.12831086204945
 10
59.2994300277375
 20
79.78802488283642
  0
LWPOLYLINE
  5
EE4
102
{ACAD_REACTORS
330
10B3
330
1596
330
15B0
102
}
330
1F
100
AcDbEntity
  8
0
100
AcDbPolyline
 90
        4
 70
     1
 43
0.0
 10
58.67953002773782
 20
81.29542398102815
 10
59.08593002773761
 20
81.29542398102815
 10
59.08593002773761
 20
81.62562398102755
 10
58.67953002773782
 20
81.62562398102755
  0
LWPOLYLINE
  5
EE5
102
{ACAD_REACTORS
330
10DE
330
1213
102
}
330
1F
100
AcDbEntity
  8
0
100
AcDbPolyline
 90
        4
 70
     1
 43
0.0
 10
59.33993002773807
 20
80.30482398102774
 10
59.74633002773785
 20
80.30482398102774
 10
59.74633002773785
 20
81.62562398102755
 10
59.33993002773807
 20
81.62562398102755
  0
LWPOLYLINE
  5
EE6
102
{ACAD_REACTORS
330
10B3
102
}
330
1F
100
AcDbEntity
  8
0
100
AcDbPolyline
 90
        4
 70
     1
 43
0.0
 10
58.67953002773782
 20
80.30482398102774
 10
59.08593002773761
 20
80.30482398102774
 10
59.08593002773761
 20
80.63502398102789
 10
58.67953002773782
 20
80.63502398102789
  0
LWPOLYLINE
  5
EE7
102
{ACAD_REACTORS
330
EFB
330
10B3
330
15CC
102
}
330
1F
100
AcDbEntity
  8
0
100
AcDbPolyline
 90
        4
 70
     1
 43
0.0
 10
60.00033002773768
 20
81.29542398102815
 10
60.40673002773814
 20
81.29542398102815
 10
60.40673002773814
 20
81.62562398102755
 10
60.00033002773768
 20
81.62562398102755
  0
LWPOLYLINE
  5
EE8
102
{ACAD_REACTORS
330
EFB
330
10B3
102
}
330
1F
100
AcDbEntity
  8
0
100
AcDbPolyline
 90
        4
 70
     1
 43
0.0
 10
60.00033002773768
 20
80.30482398102774
 10
60.40673002773814
 20
80.30482398102774
 10
60.40673002773814
 20
80.63502398102789
 10
60.00033002773768
 20
80.63502398102789
  0
CIRCLE
  5
EE9
102
{ACAD_REACTORS
330
10DE
102
}
330
1F
100
AcDbEntity
  8
0
100
AcDbCircle
 10
59.54313002773833
 20
80.00896787244283
 30
0.0
 40
0.1270000000001372
  0
LWPOLYLINE
  5
EEA
102
{ACAD_REACTORS
330
10DE
330
15CC
102
}
330
1F
100
AcDbEntity
  8
0
100
AcDbPolyline
 90
        6
 70
     1
 43
0.0
 10
59.78683002773844
 20
82.14242307921958
 10
59.78683002773844
 20
81.80213710000655
 10
59.74633002773785
 20
81.62562398102755
 10
59.33993002773807
 20
81.62562398102828
 10
59.2994300277375
 20
81.80213710000655
 10
59.2994300277375
 20
82.14242307921958
  0
CIRCLE
  5
EEB
102
{ACAD_REACTORS
330
10DE
102
}
330
1F
100
AcDbEntity
  8
0
100
AcDbCircle
 10
59.54313002773833
 20
81.9214800896132
 30
0.0
 40
0.1270000000001372
  0
CIRCLE
  5
EEC
102
{ACAD_REACTORS
330
10DE
102
}
330
1F
100
AcDbEntity
  8
0
100
AcDbCircle
 10
59.54313002773833
 20
80.96522398102766
 30
0.0
 40
0.1270000000001372
  0
CIRCLE
  5
EED
102
{ACAD_REACTORS
330
10DE
102
}
330
1F
100
AcDbEntity
  8
0
100
AcDbCircle
 10
59.54313002773833
 20
81.44335203532023
 30
0.0
 40
0.1270000000001372
  0
CIRCLE
  5
EEE
102
{ACAD_REACTORS
330
10DE
102
}
330
1F
100
AcDbEntity
  8
0
100
AcDbCircle
 10
59.54313002773833
 20
80.48709592673505
 30
0.0
 40
0.1270000000001372
  0
LWPOLYLINE
  5
EEF
102
{ACAD_REACTORS
330
10B5
102
}
330
1F
100
AcDbEntity
  8
0
100
AcDbPolyline
 90
        7
 70
     1
 43
0.0
 10
60.60994115544762
 20
80.0596358122889
 10
60.4802717548365
 20
80.38479385230733
 10
60.40672999273748
 20
80.55599571261213
 10
60.40672999273748
 20
80.30482398102924
 10
60.05293468489764
 20
80.30482398102924
 10
60.07918823062809
 20
80.2248462152262
 10
60.26257577842072
 20
79.76498494245858
 42
0.081923635363632
  0
LWPOLYLINE
  5
EF0
102
{ACAD_REACTORS
330
F01
330
10B5
102
}
330
1F
100
AcDbEntity
  8
0
100
AcDbPolyline
 90
        7
 70
     1
 43
0.0
 10
60.60994115544764
 20
81.87081214976728
 42
0.0819236353636319
 10
60.26257577842074
 20
82.16546301959763
 10
60.07918823062809
 20
81.70560174683002
 10
60.05293468489764
 20
81.62562398102695
 10
60.40672999273748
 20
81.62562398102695
 10
60.40672999273748
 20
81.37445224944405
 10
60.4802717548365
 20
81.54565410974887
  0
LWPOLYLINE
  5
EF1
102
{ACAD_REACTORS
330
10B5
330
15B0
102
}
330
1F
100
AcDbEntity
  8
0
100
AcDbPolyline
 90
        7
 70
     1
 43
0.0
 10
58.47631883002702
 20
81.87081214976741
 10
58.60598823063819
 20
81.54565410974887
 10
58.67952999273765
 20
81.37445224944405
 10
58.67952999273765
 20
81.62562398102695
 10
59.0333253005766
 20
81.62562398102695
 10
59.00707175484704
 20
81.70560174683002
 10
58.8236842070543
 20
82.16546301959786
 42
0.0819236353636944
  0
LWPOLYLINE
  5
EF2
102
{ACAD_REACTORS
330
10B5
102
}
330
1F
100
AcDbEntity
  8
0
100
AcDbPolyline
 90
        7
 70
     1
 43
0.0
 10
58.47631883002705
 20
80.05963581228881
 42
0.0819236353636943
 10
58.82368420705427
 20
79.76498494245834
 10
59.00707175484704
 20
80.2248462152262
 10
59.0333253005766
 20
80.30482398102924
 10
58.67952999273765
 20
80.30482398102924
 10
58.67952999273765
 20
80.55599571261213
 10
58.60598823063819
 20
80.38479385230733
  0
DIMENSION
  5
EF9
102
{ACAD_XDICTIONARY
360
EFA
102
}
102
{ACAD_REACTORS
330
EFB
102
}
330
1F
100
AcDbEntity
  8
Dimensions
100
AcDbDimension
280
     0
  2
*D20
 10
61.04586006559201
 20
80.63502398102791
 30
0.0
 11
60.71601695508725
 21
80.53502398102789
 31
0.0
 70
    32
 71
     5
 42
0.6604000000002657
 73
     0
 74
     0
 75
     0
  3
Bing_1
100
AcDbAlignedDimension
 13
60.40673002773814
 23
81.29542398102815
 33
0.0
 14
60.40673002773814
 24
80.63502398102789
 34
0.0
 50
90.0
100
AcDbRotatedDimension
  0
DIMENSION
  5
EFF
102
{ACAD_XDICTIONARY
360
F00
102
}
102
{ACAD_REACTORS
330
F01
102
}
330
1F
100
AcDbEntity
  8
Dimensions
100
AcDbDimension
280
     0
  2
*D22
 10
60.81014508087164
 20
82.37284204801651
 30
0.0
 11
58.67757930089997
 21
82.80160301669868
 31
0.0
 70
   161
  1
4x Transmission Line
 71
     5
 42
0.4317999999991821
 73
     0
 74
     0
 75
     0
  3
Standard
100
AcDbAlignedDimension
 13
60.17088200452442
 23
81.93553238321381
 33
0.0
 14
60.57196552873261
 24
81.77558474613205
 34
0.0
1001
ACAD
1000
DSTYLE
1002
{
1070
   140
1040
0.12
1002
}
  0
MULTILEADER
  5
F02
330
1F
100
AcDbEntity
  8
Dimensions
160
               872
310
68030000190000000C00000016000000000000C00C00000033000000000000000C00000013000000993A0000D000000026000000BF6DB89A3C914D40510F5DBCA6C75340000000000000000000000000000000000000000000000000000000000000F03F000000000000F03F0000000000000000000000000000000050006C
310
00610074006500640020007400680072006F00750067006800000034000E00000001000000B81E85EB51B8BE3F000000000000F03F0000000000000000000000000000F03F00000000000000000000000000000000000000000000000000000000010000002200000041007200690061006C00000000005C0000000000D400
310
000026000000A4A5DB65E4924D40844290EFD9BA5340000000000000000000000000000000000000000000000000000000000000F03F000000000000F03F00000000000000000000000000000000200068006F006C0065007300200074006F002000670072006F0075006E0064000000E7421000000001000000B81E85EB51
310
B8BE3F000000000000F03F0000000000000000000000000000F03F00000000000000000000000000000000000000000000000000000000010000002200000041007200690061006C0000000000000000005C000C00000033000000000000000C00000010000000050000000C00000016000000000000C00C00000012000000
310
FF7F00000C00000013000000010000000C000000140000000100000054000000070000000300000058145A4DFEAA4D4088F8D854D2F25340000000000000000001B0815481BE4D40DB21F2E63DF9534000000000000000009EDD506736B04D405CEF262B01F0534000000000000000000C00000014000000010000000C0000
310
0013000000891300003C0000000600000002000000FB78555A9AAD4D40F2F3FFBF69F1534000000000000000000D0C42CC4A594D40F181C4C35CCA534000000000000000000C00000013000000122700003C00000006000000020000000D0C42CC4A594D40F181C4C35CCA53400000000000000000BB5323475F874D40F181
310
C4C35CCA534000000000000000000C00000016000000000000C00C00000012000000FF7F00000C00000017000000000000000C000000130000009A3A00000C00000016000000000000C00C00000012000000FF7F00000C00000017000000FFFFFFFF0C0000003300000000000000
100
AcDbMLeader
270
     2
300
CONTEXT_DATA{
 40
1.0
 10
59.05759515023188
 20
79.16191190900987
 30
0.0
 41
0.12
140
0.18
145
0.09
174
     1
175
     1
176
     0
177
     0
290
     1
304
Plated through\P holes to ground
 11
0.0
 21
0.0
 31
1.0
340
11
 12
59.14759515023186
 22
79.23955174529909
 32
0.0
 13
1.0
 23
0.0
 33
0.0
 42
0.0
 43
0.0
 44
0.0
 45
1.0
170
     1
 90
-1073741824
171
     1
172
     5
 91
-1073741824
141
0.0
 92
        0
291
     0
292
     0
173
     0
293
     0
142
0.0
143
0.0
294
     0
295
     0
296
     0
110
59.5796129582315
120
79.88732085939822
130
0.0
111
1.0
121
0.0
131
0.0
112
0.0
122
1.0
132
0.0
297
     0
302
LEADER{
290
     1
291
     1
 10
58.69759515023188
 20
79.16191190900987
 30
0.0
 11
1.0
 21
0.0
 31
0.0
 90
        1
 40
0.36
304
LEADER_LINE{
 10
59.4883218415489
 20
79.89440320630767
 30
0.0
 91
        0
305
}
271
     0
303
}
272
     9
273
     9
301
}
340
D8
 90
   345088
170
     1
 91
-1056964608
341
14
171
    -2
290
     1
291
     1
 41
0.36
 42
0.18
172
     2
343
11
173
     1
 95
        1
174
     1
175
     2
 92
-1056964608
292
     0
 93
-1056964608
 10
1.0
 20
1.0
 30
1.0
 43
0.0
176
     0
293
     0
294
     0
178
     0
179
     3
 45
1.0
271
     0
272
     9
273
     9
295
     0
  0
MTEXT
  5
F03
330
1F
100
AcDbEntity
  8
_Notes
100
AcDbMText
 10
58.22048300379806
 20
78.63933724547852
 30
0.0
 40
0.18
 41
3.864116071461238
 46
0.0
 71
     1
 72
     5
  1
Dimensions are in Millimeters
 73
     1
 44
1.0
101
Embedded Object
 70
     1
 10
1.0
 20
0.0
 30
0.0
 11
58.22048300379806
 21
78.63933724547852
 31
0.0
 40
3.864116071461238
 41
0.0
 42
3.254733969986357
 43
0.1829467939972715
 71
     2
 72
     1
 44
3.864116071461238
 45
0.6
 73
     0
 74
     0
 46
0.0
  0
LWPOLYLINE
  5
104B
102
{ACAD_REACTORS
330
17D8
102
}
330
1F
100
AcDbEntity
  8
M2_P
100
AcDbPolyline
 90
        4
 70
     1
 43
0.0
 10
71.68420352853637
 20
80.9013143973134
 10
73.09131427762825
 20
80.9013143973134
 10
73.09131427762825
 20
80.96798939731344
 10
71.68420352853637
 20
80.96798939731344
  0
LWPOLYLINE
  5
104F
330
1F
100
AcDbEntity
  8
DielAll
100
AcDbPolyline
 90
        4
 70
     1
 43
0.0
 10
71.68420352853637
 20
81.72998939731337
 10
73.09131427762825
 20
81.7299893973132
 10
73.09131427762825
 20
80.96798939731344
 10
71.68420352853637
 20
80.96798939731344
  0
LWPOLYLINE
  5
1052
330
1F
100
AcDbEntity
  8
M2_P
100
AcDbPolyline
 90
        4
 70
     1
 43
0.0
 10
70.16020352853671
 20
80.9013143973134
 10
69.07320913465695
 20
80.9013143973134
 10
69.07320913465695
 20
80.96798939731344
 10
70.16020352853671
 20
80.96798939731344
  0
LWPOLYLINE
  5
1055
330
1F
100
AcDbEntity
  8
DielAll
100
AcDbPolyline
 90
        4
 70
     1
 43
0.0
 10
70.16020352853671
 20
81.72998939731337
 10
69.07320913465695
 20
81.72998939731337
 10
69.07320913465695
 20
80.96798939731344
 10
70.16020352853671
 20
80.96798939731344
  0
LINE
  5
1057
330
1F
100
AcDbEntity
  8
edcopper
370
    -3
100
AcDbLine
 10
70.25545352853599
 20
81.91096439731371
 30
0.0
 11
71.58895352853662
 21
81.91096439731371
 31
0.0
  0
LINE
  5
105A
330
1F
100
AcDbEntity
  8
M1-M3_NPTH
100
AcDbLine
 10
69.07320913465695
 20
81.91096439731342
 30
0.0
 11
69.07320913465695
 21
80.9013143973134
 31
0.0
  0
MTEXT
  5
1070
102
{ACAD_XDICTIONARY
360
1071
102
}
330
1F
100
AcDbEntity
  8
_Notes
100
AcDbMText
 10
67.55924500635291
 20
83.39452641284765
 30
0.0
 40
0.18
 41
7.220962151881102
 46
0.0
 71
     1
 72
     5
  1
\pxqc;BOARD CROSS-SECTION (STACK-UP)\PScale: Not in scale
 73
     1
 44
1.0
101
Embedded Object
 70
     1
 10
1.0
 20
0.0
 30
0.0
 11
67.55924500635291
 21
83.39452641284765
 31
0.0
 40
7.220962151881102
 41
0.0
 42
4.541009549795361
 43
0.4893315143246931
 71
     2
 72
     1
 44
7.220962151881102
 45
1.904999999999999
 73
     0
 74
     0
 46
1.046150325768925
  0
LINE
  5
1073
330
1F
100
AcDbEntity
  8
M1-M3_PTH
100
AcDbLine
 10
71.58895352853662
 20
81.91096439731342
 30
0.0
 11
71.58895352853662
 21
80.9013143973134
 31
0.0
  0
LINE
  5
1074
102
{ACAD_REACTORS
330
1844
102
}
330
1F
100
AcDbEntity
  8
M1-M3_PTH
100
AcDbLine
 10
70.25545352853599
 20
81.91096439731342
 30
0.0
 11
70.25545352853599
 21
80.9013143973134
 31
0.0
  0
LWPOLYLINE
  5
107C
102
{ACAD_REACTORS
330
1812
330
183C
102
}
330
1F
100
AcDbEntity
  8
M1_P
100
AcDbPolyline
 90
        4
 70
     1
 43
0.0
 10
71.68420352853637
 20
81.72998954646455
 10
73.09131427762825
 20
81.72998954646455
 10
73.09131427762825
 20
81.79666454646451
 10
71.68420352853637
 20
81.79666454646451
  0
LWPOLYLINE
  5
107D
102
{ACAD_REACTORS
330
1812
330
183C
102
}
330
1F
100
AcDbEntity
  8
M1_P
100
AcDbPolyline
 90
        4
 70
     1
 43
0.0
 10
70.16020352853671
 20
81.72998954646455
 10
69.07320913465683
 20
81.72998954646482
 10
69.07320913465683
 20
81.79666454646451
 10
70.16020352853671
 20
81.79666454646451
  0
HATCH
  5
10B3
330
1F
100
AcDbEntity
  8
0
100
AcDbHatch
 10
0.0
 20
0.0
 30
0.0
210
0.0
220
0.0
230
1.0
  2
SOLID
 70
     1
 71
     1
 91
        4
 92
        1
 93
        4
 72
     1
 10
58.67953002773782
 20
81.29542398102815
 11
59.08593002773761
 21
81.29542398102815
 72
     1
 10
59.08593002773761
 20
81.29542398102815
 11
59.08593002773761
 21
81.62562398102755
 72
     1
 10
59.08593002773761
 20
81.62562398102755
 11
58.67953002773782
 21
81.62562398102755
 72
     1
 10
58.67953002773782
 20
81.62562398102755
 11
58.67953002773782
 21
81.29542398102815
 97
        1
330
EE4
 92
        1
 93
        4
 72
     1
 10
60.00033002773768
 20
81.29542398102815
 11
60.40673002773814
 21
81.29542398102815
 72
     1
 10
60.40673002773814
 20
81.29542398102815
 11
60.40673002773814
 21
81.62562398102755
 72
     1
 10
60.40673002773814
 20
81.62562398102755
 11
60.00033002773768
 21
81.62562398102755
 72
     1
 10
60.00033002773768
 20
81.62562398102755
 11
60.00033002773768
 21
81.29542398102815
 97
        1
330
EE7
 92
        1
 93
        4
 72
     1
 10
60.00033002773768
 20
80.30482398102774
 11
60.40673002773814
 21
80.30482398102774
 72
     1
 10
60.40673002773814
 20
80.30482398102774
 11
60.40673002773814
 21
80.63502398102789
 72
     1
 10
60.40673002773814
 20
80.63502398102789
 11
60.00033002773768
 21
80.63502398102789
 72
     1
 10
60.00033002773768
 20
80.63502398102789
 11
60.00033002773768
 21
80.30482398102774
 97
        1
330
EE8
 92
        1
 93
        4
 72
     1
 10
58.67953002773782
 20
80.30482398102774
 11
59.08593002773761
 21
80.30482398102774
 72
     1
 10
59.08593002773761
 20
80.30482398102774
 11
59.08593002773761
 21
80.63502398102789
 72
     1
 10
59.08593002773761
 20
80.63502398102789
 11
58.67953002773782
 21
80.63502398102789
 72
     1
 10
58.67953002773782
 20
80.63502398102789
 11
58.67953002773782
 21
80.30482398102774
 97
        1
330
EE6
 75
     1
 76
     1
 98
        1
 10
-4.599960241907659
 20
0.0
450
        0
451
        0
460
0.0
461
0.0
452
        0
462
0.0
453
        2
463
0.0
 63
     5
421
      255
463
1.0
 63
     2
421
 16776960
470
LINEAR
1001
GradientColor1ACI
1070
     5
1001
GradientColor2ACI
1070
     2
1001
ACAD
1010
0.0
1020
0.0
1030
0.0
  0
HATCH
  5
10B5
330
1F
100
AcDbEntity
  8
0
100
AcDbHatch
 10
0.0
 20
0.0
 30
0.0
210
0.0
220
0.0
230
1.0
  2
CROSS
 70
     0
 71
     1
 91
        4
 92
        1
 93
        7
 72
     2
 10
59.54312999273716
 20
80.96522398102816
 40
1.399348415600636
 50
40.3270586308383
 51
59.06073732177147
 73
     1
 72
     1
 10
60.26257577842074
 20
82.16546301959763
 11
60.07918823062809
 21
81.70560174683002
 72
     1
 10
60.07918823062809
 20
81.70560174683002
 11
60.05293468489764
 21
81.62562398102695
 72
     1
 10
60.05293468489764
 20
81.62562398102695
 11
60.40672999273748
 21
81.62562398102695
 72
     1
 10
60.40672999273748
 20
81.62562398102695
 11
60.40672999273748
 21
81.37445224944405
 72
     1
 10
60.40672999273748
 20
81.37445224944405
 11
60.4802717548365
 21
81.54565410974887
 72
     1
 10
60.4802717548365
 20
81.54565410974887
 11
60.60994115544764
 21
81.87081214976728
 97
        1
330
EF0
 92
        1
 93
        7
 72
     1
 10
58.47631883002702
 20
81.87081214976741
 11
58.60598823063819
 21
81.54565410974887
 72
     1
 10
58.60598823063819
 20
81.54565410974887
 11
58.67952999273765
 21
81.37445224944405
 72
     1
 10
58.67952999273765
 20
81.37445224944405
 11
58.67952999273765
 21
81.62562398102695
 72
     1
 10
58.67952999273765
 20
81.62562398102695
 11
59.0333253005766
 21
81.62562398102695
 72
     1
 10
59.0333253005766
 20
81.62562398102695
 11
59.00707175484704
 21
81.70560174683002
 72
     1
 10
59.00707175484704
 20
81.70560174683002
 11
58.8236842070543
 21
82.16546301959786
 72
     2
 10
59.54312999273735
 20
80.96522398102804
 40
1.399348415600669
 50
120.9392626782023
 51
139.6729413691498
 73
     1
 97
        1
330
EF1
 92
        1
 93
        7
 72
     2
 10
59.54312999273735
 20
80.96522398102804
 40
1.39934841560056
 50
220.3270586308463
 51
239.0607373217937
 73
     1
 72
     1
 10
58.82368420705427
 20
79.76498494245834
 11
59.00707175484704
 21
80.2248462152262
 72
     1
 10
59.00707175484704
 20
80.2248462152262
 11
59.0333253005766
 21
80.30482398102924
 72
     1
 10
59.0333253005766
 20
80.30482398102924
 11
58.67952999273765
 21
80.30482398102924
 72
     1
 10
58.67952999273765
 20
80.30482398102924
 11
58.67952999273765
 21
80.55599571261213
 72
     1
 10
58.67952999273765
 20
80.55599571261213
 11
58.60598823063819
 21
80.38479385230733
 72
     1
 10
58.60598823063819
 20
80.38479385230733
 11
58.47631883002705
 21
80.05963581228881
 97
        1
330
EF2
 92
        1
 93
        7
 72
     1
 10
60.60994115544762
 20
80.0596358122889
 11
60.4802717548365
 21
80.38479385230733
 72
     1
 10
60.4802717548365
 20
80.38479385230733
 11
60.40672999273748
 21
80.55599571261213
 72
     1
 10
60.40672999273748
 20
80.55599571261213
 11
60.40672999273748
 21
80.30482398102924
 72
     1
 10
60.40672999273748
 20
80.30482398102924
 11
60.05293468489764
 21
80.30482398102924
 72
     1
 10
60.05293468489764
 20
80.30482398102924
 11
60.07918823062809
 21
80.2248462152262
 72
     1
 10
60.07918823062809
 20
80.2248462152262
 11
60.26257577842072
 21
79.76498494245858
 72
     2
 10
59.54312999273714
 20
80.96522398102804
 40
1.399348415600625
 50
300.9392626782288
 51
319.6729413691622
 73
     1
 97
        1
330
EEF
 75
     1
 76
     1
 52
0.0
 41
0.2
 77
     0
 78
     2
 53
0.0
 43
-4.599960241907659
 44
0.0
 45
0.05
 46
0.05
 79
     2
 49
0.025
 49
-0.075
 53
90.0
 43
-4.587460241907659
 44
-0.0125
 45
-0.05
 46
0.05
 79
     2
 49
0.025
 49
-0.075
 98
        1
 10
-4.599960241907659
 20
0.0
1001
GradientColor1ACI
1070
     5
1001
GradientColor2ACI
1070
     2
1001
ACAD
1010
0.0
1020
0.0
1030
0.0
  0
HATCH
  5
10DE
330
1F
100
AcDbEntity
  8
0
100
AcDbHatch
 10
0.0
 20
0.0
 30
0.0
210
0.0
220
0.0
230
1.0
  2
DOTS
 70
     0
 71
     1
 91
        8
 92
        7
 72
     0
 73
     1
 93
        6
 10
59.33993002773807
 20
81.62562398102828
 10
59.74633002773785
 20
81.62562398102755
 10
59.78683002773844
 20
81.80213710000655
 10
59.78683002773844
 20
82.14242307921958
 10
59.2994300277375
 20
82.14242307921958
 10
59.2994300277375
 20
81.80213710000655
 97
        1
330
EEA
 92
       22
 72
     1
 73
     1
 93
        2
 10
59.4161300277382
 20
81.9214800896132
 42
-1.0
 10
59.67013002773846
 20
81.9214800896132
 42
-1.0
 97
        1
330
EEB
 92
        7
 72
     0
 73
     1
 93
        4
 10
59.74633002773785
 20
81.62562398102755
 10
59.33993002773807
 20
81.62562398102828
 10
59.33993002773807
 20
80.30482398102774
 10
59.74633002773785
 20
80.30482398102774
 97
        2
330
EEA
330
EE5
 92
       22
 72
     1
 73
     1
 93
        2
 10
59.4161300277382
 20
81.44335203532023
 42
-1.0
 10
59.67013002773846
 20
81.44335203532023
 42
-1.0
 97
        1
330
EED
 92
       22
 72
     1
 73
     1
 93
        2
 10
59.67013002773846
 20
80.96522398102766
 42
-1.0
 10
59.4161300277382
 20
80.96522398102766
 42
-1.0
 97
        1
330
EEC
 92
       22
 72
     1
 73
     1
 93
        2
 10
59.67013002773846
 20
80.48709592673505
 42
-1.0
 10
59.4161300277382
 20
80.48709592673505
 42
-1.0
 97
        1
330
EEE
 92
        7
 72
     0
 73
     1
 93
        6
 10
59.74633002773785
 20
80.30482398102774
 10
59.33993002773807
 20
80.30482398102774
 10
59.2994300277375
 20
80.12831086204945
 10
59.2994300277375
 20
79.78802488283642
 10
59.78683002773844
 20
79.78802488283569
 10
59.78683002773844
 20
80.12831086204874
 97
        1
330
EE3
 92
       22
 72
     1
 73
     1
 93
        2
 10
59.67013002773846
 20
80.00896787244283
 42
-1.0
 10
59.4161300277382
 20
80.00896787244283
 42
-1.0
 97
        1
330
EE9
 75
     1
 76
     1
 52
0.0
 41
0.2
 77
     0
 78
     1
 53
0.0
 43
-4.599960241907659
 44
0.0
 45
0.00625
 46
0.0125
 79
     2
 49
0.0
 49
-0.0125
 47
0.0064955899709861
 98
        8
 10
59.40625790679813
 20
81.71388488735614
 10
59.40625790679813
 20
81.71388488735614
 10
59.64191111580769
 20
81.21039852166786
 10
59.64191111580769
 20
81.21039852166786
 10
59.64191111580769
 20
81.21039852166786
 10
59.64191111580769
 20
81.21039852166786
 10
59.69831536281649
 20
80.18843754587065
 10
59.69831536281649
 20
80.18843754587065
1001
GradientColor1ACI
1070
     5
1001
GradientColor2ACI
1070
     2
1001
ACAD
1010
0.0
1020
0.0
1030
0.0
  0
HATCH
  5
111C
330
1F
100
AcDbEntity
  8
0
100
AcDbHatch
 10
0.0
 20
0.0
 30
0.0
210
0.0
220
0.0
230
1.0
  2
DOTS
 70
     0
 71
     0
 91
        8
 92
        7
 72
     0
 73
     1
 93
        6
 10
65.39156068306903
 20
81.80213710000655
 10
65.39156068306903
 20
82.14242307921958
 10
64.90416068306807
 20
82.14242307921958
 10
64.90416068306807
 20
81.80213710000655
 10
64.94466068306866
 20
81.62562398102828
 10
65.35106068306845
 20
81.62562398102755
 97
        0
 92
       22
 72
     1
 73
     1
 93
        2
 10
65.02086068306879
 20
81.9214800896132
 42
-1.0
 10
65.27486068306906
 20
81.9214800896132
 42
-1.0
 97
        0
 92
        7
 72
     0
 73
     1
 93
        4
 10
65.35106068306845
 20
81.62562398102755
 10
64.94466068306866
 20
81.62562398102828
 10
64.94466068306866
 20
80.30482398102774
 10
65.35106068306845
 20
80.30482398102774
 97
        0
 92
       22
 72
     1
 73
     1
 93
        2
 10
65.27486068306906
 20
80.96522398102766
 42
-1.0
 10
65.02086068306879
 20
80.96522398102766
 42
-1.0
 97
        0
 92
       22
 72
     1
 73
     1
 93
        2
 10
65.02086068306879
 20
81.44335203532023
 42
-1.0
 10
65.27486068306906
 20
81.44335203532023
 42
-1.0
 97
        0
 92
       22
 72
     1
 73
     1
 93
        2
 10
65.27486068306906
 20
80.48709592673505
 42
-1.0
 10
65.02086068306879
 20
80.48709592673505
 42
-1.0
 97
        0
 92
        7
 72
     0
 73
     1
 93
        6
 10
65.35106068306845
 20
80.30482398102774
 10
64.94466068306866
 20
80.30482398102774
 10
64.90416068306807
 20
80.12831086204945
 10
64.90416068306807
 20
79.78802488283642
 10
65.39156068306903
 20
79.78802488283569
 10
65.39156068306903
 20
80.12831086204874
 97
        0
 92
       22
 72
     1
 73
     1
 93
        2
 10
65.27486068306906
 20
80.00896787244283
 42
-1.0
 10
65.02086068306879
 20
80.00896787244283
 42
-1.0
 97
        0
 75
     1
 76
     1
 52
0.0
 41
0.2
 77
     0
 78
     1
 53
0.0
 43
7.021824522909746
 44
0.0
 45
0.00625
 46
0.0125
 79
     2
 49
0.0
 49
-0.0125
 47
0.0065137043524241
 98
        8
 10
65.24583179040114
 20
81.71179960850395
 10
65.24583179040114
 20
81.71179960850395
 10
65.27190319426853
 20
81.20373056892384
 10
65.27190319426853
 20
81.20373056892384
 10
65.27190319426853
 20
81.20373056892384
 10
65.27190319426853
 20
81.20373056892384
 10
65.2262782375007
 20
80.24621613849843
 10
65.2262782375007
 20
80.24621613849843
1001
GradientColor1ACI
1070
     5
1001
GradientColor2ACI
1070
     2
1001
ACAD
1010
0.0
1020
0.0
1030
0.0
  0
HATCH
  5
111D
330
1F
100
AcDbEntity
  8
0
  6
ACAD_ISO02W100
 62
     8
100
AcDbHatch
 10
0.0
 20
0.0
 30
0.0
210
0.0
220
0.0
230
1.0
  2
CROSS
 70
     0
 71
     0
 91
        1
 92
        1
 93
        4
 72
     1
 10
55.27328122344489
 20
80.08786464055317
 11
55.67968122344485
 21
80.08786464055317
 72
     1
 10
55.67968122344485
 20
80.08786464055317
 11
55.67968122344485
 21
80.41806464055294
 72
     1
 10
55.67968122344485
 20
80.41806464055294
 11
55.27328122344489
 21
80.41806464055294
 72
     1
 10
55.27328122344489
 20
80.41806464055294
 11
55.27328122344489
 21
80.08786464055317
 97
        0
 75
     0
 76
     1
 52
0.0
 41
0.25
 77
     0
 78
     2
 53
0.0
 43
37.90254219984878
 44
66.44955935493761
 45
0.0625
 46
0.0625
 79
     2
 49
0.03125
 49
-0.09375
 53
90.0
 43
37.91816719984878
 44
66.43393435493762
 45
-0.0625
 46
0.0625
 79
     2
 49
0.03125
 49
-0.09375
 98
        1
 10
93.43792091830488
 20
82.67484339156608
1001
ACAD
1010
0.0
1020
0.0
1030
0.0
  0
LWPOLYLINE
  5
111E
330
1F
100
AcDbEntity
  8
0
 62
     0
100
AcDbPolyline
 90
        4
 70
     1
 43
0.0
 10
55.27328122344489
 20
80.08786464055317
 10
55.67968122344485
 20
80.08786464055317
 10
55.67968122344485
 20
80.41806464055294
 10
55.27328122344489
 20
80.41806464055294
  0
HATCH
  5
111F
330
1F
100
AcDbEntity
  8
0
  6
ACAD_ISO02W100
 62
     0
100
AcDbHatch
 10
0.0
 20
0.0
 30
0.0
210
0.0
220
0.0
230
1.0
  2
SOLID
 70
     1
 71
     0
 91
        1
 92
        7
 72
     0
 73
     1
 93
        4
 10
55.67968122344485
 20
80.85834669464077
 10
55.27328122344489
 20
80.85834669464077
 10
55.27328122344489
 20
80.52814669464103
 10
55.67968122344485
 20
80.52814669464103
 97
        0
 75
     0
 76
     1
 47
0.0000942223076817
 98
        1
 10
55.47395649788853
 20
80.72199965391883
450
        0
451
        0
460
0.0
461
0.0
452
        1
462
1.0
453
        2
463
0.0
 63
     5
421
      255
463
1.0
 63
     7
421
 16777215
470
LINEAR
1001
ACAD
1010
0.0
1020
0.0
1030
0.0
  0
LWPOLYLINE
  5
1120
330
1F
100
AcDbEntity
  8
0
 62
     0
100
AcDbPolyline
 90
        4
 70
     1
 43
0.0
 10
55.27328122344489
 20
80.52814669464103
 10
55.67968122344485
 20
80.52814669464103
 10
55.67968122344485
 20
80.85834669464077
 10
55.27328122344489
 20
80.85834669464077
  0
LWPOLYLINE
  5
1122
102
{ACAD_REACTORS
330
1125
102
}
330
1F
100
AcDbEntity
  8
0
 62
     0
100
AcDbPolyline
 90
        4
 70
     1
 43
0.0
 10
55.27328122344489
 20
79.65793883509917
 10
55.67968122344485
 20
79.65793883509917
 10
55.67968122344485
 20
79.98813883509905
 10
55.27328122344489
 20
79.98813883509905
  0
HATCH
  5
1125
330
1F
100
AcDbEntity
  8
0
100
AcDbHatch
 10
0.0
 20
0.0
 30
0.0
210
0.0
220
0.0
230
1.0
  2
DOTS
 70
     0
 71
     1
 91
        1
 92
        1
 93
        4
 72
     1
 10
55.27328122344489
 20
79.65793883509917
 11
55.67968122344485
 21
79.65793883509917
 72
     1
 10
55.67968122344485
 20
79.65793883509917
 11
55.67968122344485
 21
79.98813883509905
 72
     1
 10
55.67968122344485
 20
79.98813883509905
 11
55.27328122344489
 21
79.98813883509905
 72
     1
 10
55.27328122344489
 20
79.98813883509905
 11
55.27328122344489
 21
79.65793883509917
 97
        1
330
1122
 75
     1
 76
     1
 52
0.0
 41
0.2
 77
     0
 78
     1
 53
0.0
 43
-4.575193848956472
 44
1.536939761077519
 45
0.00625
 46
0.0125
 79
     2
 49
0.0
 49
-0.0125
 98
        1
 10
-4.575193848956472
 20
1.536939761077519
1001
GradientColor1ACI
1070
     5
1001
GradientColor2ACI
1070
     2
1001
ACAD
1010
0.0
1020
0.0
1030
0.0
  0
MTEXT
  5
1126
330
1F
100
AcDbEntity
  8
Dimensions
  6
ACAD_ISO02W100
100
AcDbMText
 10
55.83737155223218
 20
80.85699121495958
 30
0.0
 40
0.1
 41
1.04268079435622
 46
0.0
 71
     1
 72
     5
  1
Carrier Board Land Pattern
 73
     1
 44
1.0
101
Embedded Object
 70
     1
 10
1.0
 20
0.0
 30
0.0
 11
55.83737155223218
 21
80.85699121495958
 31
0.0
 40
1.04268079435622
 41
0.0
 42
0.821418826739427
 43
0.2700090950432015
 71
     2
 72
     1
 44
1.04268079435622
 45
1.0
 73
     0
 74
     0
 46
0.0
  0
MTEXT
  5
1127
330
1F
100
AcDbEntity
  8
Dimensions
  6
ACAD_ISO02W100
100
AcDbMText
 10
55.84754278511366
 20
80.39497095339546
 30
0.0
 40
0.1
 41
1.436089966667146
 46
0.0
 71
     1
 72
     5
  1
Carrier Board Transmission Line
 73
     1
 44
1.0
101
Embedded Object
 70
     1
 10
1.0
 20
0.0
 30
0.0
 11
55.84754278511366
 21
80.39497095339546
 31
0.0
 40
1.436089966667146
 41
0.0
 42
1.124488403819918
 43
0.2700090950432015
 71
     2
 72
     1
 44
1.436089966667146
 45
1.0
 73
     0
 74
     0
 46
0.0
  0
MTEXT
  5
1128
330
1F
100
AcDbEntity
  8
Dimensions
  6
ACAD_ISO02W100
100
AcDbMText
 10
55.84431559750409
 20
79.9715467529648
 30
0.0
 40
0.1
 41
1.2465120899677
 46
0.0
 71
     1
 72
     5
  1
Carrier Board Ground Pattern
 73
     1
 44
1.0
101
Embedded Object
 70
     1
 10
1.0
 20
0.0
 30
0.0
 11
55.84431559750409
 21
79.9715467529648
 31
0.0
 40
1.2465120899677
 41
0.0
 42
0.938130968622101
 43
0.2717826284674852
 71
     2
 72
     1
 44
1.2465120899677
 45
1.0
 73
     0
 74
     0
 46
0.0
  0
MTEXT
  5
1210
330
1F
100
AcDbEntity
  8
_Notes
100
AcDbMText
 10
57.70394895647394
 20
83.44730707447684
 30
0.0
 40
0.18
 41
3.201743862552937
 46
0.0
 71
     1
 72
     5
  1
Carrier Board Land Pattern
 73
     1
 44
1.0
101
Embedded Object
 70
     1
 10
1.0
 20
0.0
 30
0.0
 11
57.70394895647394
 21
83.44730707447684
 31
0.0
 40
3.201743862552937
 41
0.0
 42
2.989276944065484
 43
0.1861391541609823
 71
     2
 72
     1
 44
3.201743862552937
 45
0.6
 73
     0
 74
     0
 46
0.0
  0
MULTILEADER
  5
1211
102
{ACAD_XDICTIONARY
360
1212
102
}
102
{ACAD_REACTORS
330
1213
102
}
330
1F
100
AcDbEntity
  8
Dimensions
160
               848
310
50030000190000000C00000016000000000000C00C00000033000000000000000C00000013000000993A0000CC0000002600000078114ACE46994C407A2D619A6B2E5440000000000000000000000000000000000000000000000000000000000000F03F000000000000F03F00000000000000000000000000000000430065
310
006E007400650072002000470072006F0075006E00640000000D000000010000009A9999999999B93F000000000000F03F0000000000000000000000000000F03F00000000000000000000000000000000000000000000000000000000010000002200000041007200690061006C0000000000610000000000C00000002600
310
0000DBE0815FD8D54C40D082B6EFC0235440000000000000000000000000000000000000000000000000000000000000F03F000000000000F03F000000000000000000000000000000005000610074007400650072006E00000007000000010000009A9999999999B93F000000000000F03F00000000000000000000000000
310
00F03F00000000000000000000000000000000000000000000000000000000010000002200000041007200690061006C00000000000000000000000C00000033000000000000000C00000010000000050000000C00000016000000000000C00C00000012000000FF7F00000C00000013000000010000000C00000014000000
310
01000000540000000700000003000000C5B497F1889E4D40895F245AB83D544000000000000000001E08C0D382AB4D400AF5CD3AC63D54400000000000000000FADBB481459F4D40EA14206B9E3B544000000000000000000C00000014000000010000000C00000013000000891300003C00000006000000020000005F48A6
310
39E79E4D40393AA262AB3C5440000000000000000020EBDE6B77214D4074E2F254AD31544000000000000000000C00000013000000112700003C000000060000000200000020EBDE6B77214D4074E2F254AD3154400000000000000000531E129FAA144D4074E2F254AD31544000000000000000000C000000160000000000
310
00C00C00000012000000FF7F00000C00000017000000000000000C000000130000009A3A00000C00000016000000000000C00C00000012000000FF7F00000C00000017000000FFFFFFFF0C0000003300000000000000
100
AcDbMLeader
270
     2
300
CONTEXT_DATA{
 40
1.0
 10
57.15443103012223
 20
80.77620433539578
 30
0.0
 41
0.1
140
0.1
145
0.05
174
     1
175
     1
176
     2
177
     0
290
     1
304
Center Ground Pattern
 11
0.0
 21
0.0
 31
1.0
340
11
 12
58.11145695099535
 22
80.82702288928393
 32
0.0
 13
1.0
 23
0.0
 33
0.0
 42
0.0
 43
0.9190658715450579
 44
0.0
 45
1.0
170
     1
 90
-1073741824
171
     3
172
     5
 91
-1073741824
141
0.0
 92
        0
291
     0
292
     0
173
     0
293
     0
142
0.0
143
0.0
294
     0
295
     0
296
     0
110
59.33993002773807
120
80.96522398102766
130
0.0
111
1.0
121
0.0
131
0.0
112
0.0
122
1.0
132
0.0
297
     0
302
LEADER{
290
     1
291
     1
 10
58.26145695099535
 20
80.77620433539578
 30
0.0
 11
-1.0
 21
0.0
 31
0.0
 90
        0
 40
0.1
304
LEADER_LINE{
 10
59.33993002773807
 20
80.96522398102766
 30
0.0
 91
        0
305
}
271
     0
303
}
272
     9
273
     9
301
}
340
432
 90
   279552
170
     1
 91
-1056964608
341
14
171
    -2
290
     1
291
     1
 41
0.1
 42
0.1
172
     2
343
11
173
     1
 95
        1
174
     1
175
     2
 92
-1056964608
292
     0
 93
-1056964608
 10
1.0
 20
1.0
 30
1.0
 43
0.0
176
     0
293
     0
294
     0
178
     0
179
     3
 45
1.0
271
     0
272
     9
273
     9
295
     0
  0
MTEXT
  5
1483
330
1F
100
AcDbEntity
  8
_Notes
100
AcDbMText
 10
62.27257553554386
 20
88.07477025800031
 30
0.0
 40
0.18
 41
3.82736840727631
 46
0.0
 71
     1
 72
     5
  1
Tolerances are Non-Cumulative
 73
     1
 44
1.0
101
Embedded Object
 70
     1
 10
1.0
 20
0.0
 30
0.0
 11
62.27257553554386
 21
88.07477025800031
 31
0.0
 40
3.82736840727631
 41
0.0
 42
3.533574351978172
 43
0.1861391541609823
 71
     2
 72
     1
 44
3.82736840727631
 45
0.6
 73
     0
 74
     0
 46
0.0
  0
MTEXT
  5
1484
330
1F
100
AcDbEntity
  8
_Notes
100
AcDbMText
 10
57.59407304396717
 20
88.07046593617229
 30
0.0
 40
0.18
 41
3.407836436619801
 46
0.0
 71
     1
 72
     5
  1
Dimensions are in Millimeters
 73
     1
 44
1.0
101
Embedded Object
 70
     1
 10
1.0
 20
0.0
 30
0.0
 11
57.59407304396717
 21
88.07046593617229
 31
0.0
 40
3.407836436619801
 41
0.0
 42
3.254733969986357
 43
0.1829467939972715
 71
     2
 72
     1
 44
3.407836436619801
 45
0.6
 73
     0
 74
     0
 46
0.0
  0
MTEXT
  5
1485
330
1F
100
AcDbEntity
  8
_Notes
100
AcDbMText
 10
58.271999299794
 20
84.83936993366201
 30
0.0
 40
0.3
 41
14.50538358267775
 46
0.0
 71
     1
 72
     5
  1
X4C 0805 Size Coupler Suggested Carrier Board Land Pattern and Stackup
 73
     1
 44
1.0
  0
LWPOLYLINE
  5
148C
330
1F
100
AcDbEntity
  8
0
100
AcDbPolyline
 90
        4
 70
     1
 43
0.0
 10
55.60780612214092
 20
93.11075693432323
 10
67.84484884541313
 20
93.11075693432323
 10
67.84484884541313
 20
87.14751959799142
 10
55.60780612214092
 20
87.14751959799142
  0
LWPOLYLINE
  5
148D
330
1F
100
AcDbEntity
  8
0
100
AcDbPolyline
 90
        4
 70
     1
 43
0.0
 10
53.69955441397316
 20
86.17887189274137
 10
82.47160285796921
 20
86.17887189274137
 10
82.47160285796921
 20
76.13639541669265
 10
53.69955441397316
 20
76.13639541669265
  0
DIMENSION
  5
1545
102
{ACAD_XDICTIONARY
360
1554
102
}
102
{ACAD_REACTORS
330
1560
102
}
330
1F
100
AcDbEntity
  8
0
100
AcDbDimension
280
     0
  2
*D25
 10
66.35700395193445
 20
81.62562398102794
 30
0.0
 11
66.02763833119777
 21
81.52562398102793
 31
0.0
 70
    32
 71
     5
 42
0.5167990981916831
 73
     0
 74
     0
 75
     0
  3
Bing_1
100
AcDbAlignedDimension
 13
65.14786068306856
 23
82.14242307921958
 33
0.0
 14
65.14786068306761
 24
81.62562398102791
 34
0.0
 50
90.0
100
AcDbRotatedDimension
  0
DIMENSION
  5
1561
102
{ACAD_XDICTIONARY
360
1570
102
}
102
{ACAD_REACTORS
330
157C
102
}
330
1F
100
AcDbEntity
  8
0
100
AcDbDimension
280
     0
  2
*D26
 10
66.34750698176974
 20
80.96522398102768
 30
0.0
 11
66.01752744561695
 21
80.86522398102765
 31
0.0
 70
    32
 71
     5
 42
0.4781280542925971
 73
     0
 74
     0
 75
     0
  3
Bing_1
100
AcDbAlignedDimension
 13
65.14786068306893
 23
81.44335203532023
 33
0.0
 14
65.14786068306893
 24
80.96522398102766
 34
0.0
 50
90.0
100
AcDbRotatedDimension
  0
DIMENSION
  5
157D
102
{ACAD_XDICTIONARY
360
158B
102
}
102
{ACAD_REACTORS
330
1596
102
}
330
1F
100
AcDbEntity
  8
0
100
AcDbDimension
280
     0
  2
*D27
 10
58.67953002773782
 20
82.21258184238676
 30
0.0
 11
58.3593049254186
 21
82.21258184238676
 31
0.0
 70
    32
 71
     5
 42
0.4063999999997848
 73
     0
 74
     0
 75
     0
  3
Bing_1
100
AcDbAlignedDimension
 13
59.08593002773761
 23
81.62562398102695
 33
0.0
 14
58.67953002773782
 24
81.62562398102695
 34
0.0
100
AcDbRotatedDimension
  0
DIMENSION
  5
1597
102
{ACAD_XDICTIONARY
360
15A5
102
}
102
{ACAD_REACTORS
330
15B0
102
}
330
1F
100
AcDbEntity
  8
0
100
AcDbDimension
280
     0
  2
*D28
 10
58.18778876306382
 20
81.29542398102818
 30
0.0
 11
58.18778876306383
 21
81.46052398102785
 31
0.0
 70
    32
 71
     5
 42
0.3301999999993939
 73
     0
 74
     0
 75
     0
  3
Bing_1
100
AcDbAlignedDimension
 13
58.67952999273765
 23
81.62562398102755
 33
0.0
 14
58.67952999273765
 24
81.29542398102815
 34
0.0
 50
90.0
100
AcDbRotatedDimension
  0
DIMENSION
  5
15B3
102
{ACAD_XDICTIONARY
360
15C1
102
}
102
{ACAD_REACTORS
330
15CC
102
}
330
1F
100
AcDbEntity
  8
0
100
AcDbDimension
280
     0
  2
*D29
 10
60.00033002773768
 20
82.28562656052961
 30
0.0
 11
59.31607764028902
 21
82.28562656052961
 31
0.0
 70
   160
 71
     5
 42
0.2539999999998059
 73
     0
 74
     0
 75
     0
  3
Bing_1
100
AcDbAlignedDimension
 13
59.74633002773785
 23
81.62562398102755
 33
0.0
 14
60.00033002773768
 24
81.62562398102755
 34
0.0
100
AcDbRotatedDimension
  0
DIMENSION
  5
1741
102
{ACAD_XDICTIONARY
360
174F
102
}
102
{ACAD_REACTORS
330
175A
102
}
330
1F
100
AcDbEntity
  8
0
100
AcDbDimension
280
     0
  2
*D33
 10
64.97575748853069
 20
88.76899815383813
 30
0.0
 11
65.40563470544746
 21
88.76899815383813
 31
0.0
 70
    32
 71
     5
 42
0.3690500000000156
 73
     0
 74
     0
 75
     0
  3
Bing_1
100
AcDbAlignedDimension
 13
64.60670748853067
 23
89.23115781365316
 33
0.0
 14
64.97575748853069
 24
89.23115781365316
 34
0.0
100
AcDbRotatedDimension
  0
DIMENSION
  5
175B
102
{ACAD_XDICTIONARY
360
1769
102
}
102
{ACAD_REACTORS
330
1774
102
}
330
1F
100
AcDbEntity
  8
0
100
AcDbDimension
280
     0
  2
*D34
 10
65.70487141469421
 20
89.2311578136532
 30
0.0
 11
65.70487141469421
 21
89.72115781365316
 31
0.0
 70
    32
 71
     5
 42
0.9800000000000324
 73
     0
 74
     0
 75
     0
  3
Bing_1
100
AcDbAlignedDimension
 13
64.60670748853067
 23
90.2111578136532
 33
0.0
 14
64.60670748853067
 24
89.23115781365316
 34
0.0
 50
90.0
100
AcDbRotatedDimension
  0
DIMENSION
  5
1775
330
1F
100
AcDbEntity
  8
0
100
AcDbDimension
280
     0
  2
*D35
 10
63.9571312092679
 20
90.81443993055598
 30
0.0
 11
64.28191934889929
 21
90.81443993055598
 31
0.0
 70
    32
 71
     5
 42
0.6495762792627602
 73
     0
 74
     0
 75
     0
  3
Bing_1
100
AcDbAlignedDimension
 13
64.60670748853067
 23
90.2111578136532
 33
0.0
 14
63.9571312092679
 24
90.2111578136532
 34
0.0
100
AcDbRotatedDimension
  0
LWPOLYLINE
  5
1796
102
{ACAD_REACTORS
330
1812
330
183C
102
}
330
1F
100
AcDbEntity
  8
edcopper
370
    -3
100
AcDbPolyline
 90
        6
 70
     0
 43
0.0
 10
70.25545352853599
 20
80.9013143973134
 10
70.25545352853599
 20
81.91096439731371
 10
69.07320913465695
 20
81.91096439731342
 10
69.07320913465695
 20
81.79666439731347
 10
70.16020352853671
 20
81.79666439731347
 10
70.16020352853671
 20
80.9013143973134
  0
LWPOLYLINE
  5
1797
102
{ACAD_REACTORS
330
1812
330
183C
102
}
330
1F
100
AcDbEntity
  8
edcopper
370
    -3
100
AcDbPolyline
 90
        6
 70
     0
 43
0.0
 10
71.58895352853662
 20
80.9013143973134
 10
71.58895352853662
 20
81.91096439731371
 10
73.09131427762825
 20
81.91096439731342
 10
73.09131427762825
 20
81.79666439731347
 10
71.68420352853637
 20
81.79666439731347
 10
71.68420352853637
 20
80.9013143973134
  0
MULTILEADER
  5
17D3
330
1F
100
AcDbEntity
  8
0
160
               656
310
90020000180000000C00000016000000000000C00C00000033000000000000000C00000013000000993A0000CC000000260000001B23E27B43655240C645BD9273855440000000000000000000000000000000000000000000000000000000000000F03F000000000000F03F000000000000000000000000000000004D0031
310
002000430075002000460065006100740075007200650000000D000000010000009A9999999999B93F000000000000F03F0000000000000000000000000000F03F00000000000000000000000000000000000000000000000000000000010000002200000041007200690061006C00000000007700000000000C0000003300
310
0000000000000C00000010000000000000000C00000016000000000000C00C00000012000000FF7F00000C00000013000000010000000C00000014000000010000005400000007000000030000007B6F692D304B52400F89E57FAA76544000000000000000008F04D717D8455240A83C4B8DFC72544000000000000000007D
310
20F8BAB449524033CA58493378544000000000000000000C00000014000000010000000C00000013000000891300003C0000000600000002000000FCC73074724A5240A1299FE46E7754400000000000000000B9C54AC2535C52409D7F41BEB488544000000000000000000C00000013000000112700003C00000006000000
310
02000000B9C54AC2535C52409D7F41BEB488544000000000000000001F2CB128BA6252409D7F41BEB488544000000000000000000C00000016000000000000C00C00000012000000FF7F00000C00000017000000000000000C000000130000009A3A00000C00000016000000000000C00C00000012000000FF7F00000C0000
310
0017000000FFFFFFFF0C0000003300000000000000
100
AcDbMLeader
270
     2
300
CONTEXT_DATA{
 40
1.0
 10
73.54261224081025
 20
82.13603168865525
 30
0.0
 41
0.1
140
0.1
145
0.05
174
     1
175
     1
176
     0
177
     0
290
     1
304
M1 Cu Feature
 11
0.0
 21
0.0
 31
1.0
340
11
 12
73.59261224081025
 22
82.18688434895538
 32
0.0
 13
1.0
 23
0.0
 33
0.0
 42
0.0
 43
1.098753173256965
 44
0.0
 45
1.0
170
     1
 90
-1073741824
171
     1
172
     5
 91
-1073741824
141
0.0
 92
        0
291
     0
292
     0
173
     0
293
     0
142
0.0
143
0.0
294
     0
295
     0
296
     0
110
73.09131427762825
120
81.85381439731344
130
0.0
111
1.0
121
0.0
131
0.0
112
0.0
122
1.0
132
0.0
297
     0
302
LEADER{
290
     1
291
     1
 10
73.44261224081027
 20
82.13603168865525
 30
0.0
 11
1.0
 21
0.0
 31
0.0
 90
        0
 40
0.1
304
LEADER_LINE{
 10
73.09131427762825
 20
81.79666454646451
 30
0.0
 91
        0
305
}
271
     0
303
}
272
     9
273
     9
301
}
340
432
 90
   279552
170
     1
 91
-1056964608
341
14
171
    -2
290
     1
291
     1
 41
0.1
 42
0.1
172
     2
343
11
173
     1
 95
        1
174
     1
175
     0
 92
-1056964608
292
     0
 93
-1056964608
 10
1.0
 20
1.0
 30
1.0
 43
0.0
176
     0
293
     0
294
     0
178
     0
179
     1
 45
1.0
271
     0
272
     9
273
     9
295
     0
  0
MULTILEADER
  5
17D6
102
{ACAD_XDICTIONARY
360
17D7
102
}
102
{ACAD_REACTORS
330
17D8
102
}
330
1F
100
AcDbEntity
  8
0
160
               656
310
90020000180000000C00000016000000000000C00C00000033000000000000000C00000013000000993A0000CC000000260000006DEF273BBE6A524043BE440FE12F5440000000000000000000000000000000000000000000000000000000000000F03F000000000000F03F000000000000000000000000000000004D0032
310
002000430075002000460065006100740075007200650000000D000000010000009A9999999999B93F000000000000F03F0000000000000000000000000000F03F00000000000000000000000000000000000000000000000000000000010000002200000041007200690061006C00000000006100000000000C0000003300
310
0000000000000C00000010000000000000000C00000016000000000000C00C00000012000000FF7F00000C00000013000000010000000C0000001400000001000000540000000700000003000000D26FB1C9A34B5240BA0F73A1E638544000000000000000008F04D717D8455240BF063156D13B54400000000000000000BB
310
DC58C3454C52404C700231F03A544000000000000000000C00000014000000010000000C00000013000000891300003C0000000600000002000000462685C6F44B524003C03A69EB39544000000000000000000A929081CE6152401AF8C83A2233544000000000000000000C00000013000000112700003C00000006000000
310
020000000A929081CE6152401AF8C83A22335440000000000000000070F8F6E7346852401AF8C83A2233544000000000000000000C00000016000000000000C00C00000012000000FF7F00000C00000017000000000000000C000000130000009A3A00000C00000016000000000000C00C00000012000000FF7F00000C0000
310
0017000000FFFFFFFF0C0000003300000000000000
100
AcDbMLeader
270
     2
300
CONTEXT_DATA{
 40
1.0
 10
73.62822913282593
 20
80.79896421075719
 30
0.0
 41
0.1
140
0.1
145
0.05
174
     1
175
     1
176
     0
177
     0
290
     1
304
M2 Cu Feature
 11
0.0
 21
0.0
 31
1.0
340
11
 12
73.67822913282593
 22
80.84981687105731
 32
0.0
 13
1.0
 23
0.0
 33
0.0
 42
0.0
 43
1.104505859220124
 44
0.0
 45
1.0
170
     1
 90
-1073741824
171
     1
172
     5
 91
-1073741824
141
0.0
 92
        0
291
     0
292
     0
173
     0
293
     0
142
0.0
143
0.0
294
     0
295
     0
296
     0
110
73.09131427762825
120
80.9346518973134
130
0.0
111
1.0
121
0.0
131
0.0
112
0.0
122
1.0
132
0.0
297
     0
302
LEADER{
290
     1
291
     1
 10
73.52822913282594
 20
80.79896421075719
 30
0.0
 11
1.0
 21
0.0
 31
0.0
 90
        0
 40
0.1
304
LEADER_LINE{
 10
73.09131427762825
 20
80.9346518973134
 30
0.0
 91
        0
305
}
271
     0
303
}
272
     9
273
     9
301
}
340
432
 90
   279552
170
     1
 91
-1056964608
341
14
171
    -2
290
     1
291
     1
 41
0.1
 42
0.1
172
     2
343
11
173
     1
 95
        1
174
     1
175
     0
 92
-1056964608
292
     0
 93
-1056964608
 10
1.0
 20
1.0
 30
1.0
 43
0.0
176
     0
293
     0
294
     0
178
     0
179
     1
 45
1.0
271
     0
272
     9
273
     9
295
     0
  0
MULTILEADER
  5
17D9
330
1F
100
AcDbEntity
  8
0
160
               920
310
98030000190000000C00000016000000000000C00C00000033000000000000000C00000013000000993A0000EC00000026000000D9DEFF5CA0675240C9634DDDBC605440000000000000000000000000000000000000000000000000000000000000F03F000000000000F03F00000000000000000000000000000000380020
310
004D0069006C00200052004F003400300030003300200028006F007200200061006C007400650072006E0061007400690076006500290000001D000000010000009A9999999999B93F000000000000F03F0000000000000000000000000000F03F000000000000000000000000000000000000000000000000000000000100
310
00002200000041007200690061006C0000000000000000000000E800000026000000202E41E603675240B330F3B2F5555440000000000000000000000000000000000000000000000000000000000000F03F000000000000F03F0000000000000000000000000000000031002F00320020006F007A002000430075003B0020
310
0044006B0020002800640065007300690067006E002900200033002E003500350000001B000000010000009A9999999999B93F000000000000F03F0000000000000000000000000000F03F00000000000000000000000000000000000000000000000000000000010000002200000041007200690061006C00000000000000
310
000000000C00000033000000000000000C00000010000000000000000C00000016000000000000C00C00000012000000FF7F00000C00000013000000010000000C00000014000000010000005400000007000000030000007DEBF3BD424C524060F509B3B061544000000000000000008F04D717D845524072DB88EBA66254
310
4000000000000000008B3037CE394C5240322374C2D263544000000000000000000C00000014000000010000000C00000013000000891300003C0000000600000002000000048E15463E4C5240490CBFBAC16254400000000000000000641F2486635E524016C52CC00D63544000000000000000000C000000130000001127
310
00003C0000000600000002000000641F2486635E524016C52CC00D6354400000000000000000CA858AECC964524016C52CC00D63544000000000000000000C00000016000000000000C00C00000012000000FF7F00000C00000017000000000000000C000000130000009A3A00000C00000016000000000000C00C00000012
310
000000FF7F00000C00000017000000FFFFFFFF0C0000003300000000000000
100
AcDbMLeader
270
     2
300
CONTEXT_DATA{
 40
1.0
 10
73.57482446220015
 20
81.54771427509363
 30
0.0
 41
0.1
140
0.1
145
0.05
174
     1
175
     1
176
     0
177
     0
290
     1
304
\A1;8 Mil RO4003 (or alternative) \P1/2 oz Cu; Dk (design) 3.55
 11
0.0
 21
0.0
 31
1.0
340
11
 12
73.62482446220015
 22
81.61241413866797
 32
0.0
 13
1.0
 23
0.0
 33
0.0
 42
0.0
 43
1.823443936941656
 44
0.0
 45
1.0
170
     1
 90
-1073741824
171
     1
172
     5
 91
-1073741824
141
0.0
 92
        0
291
     0
292
     0
173
     0
293
     0
142
0.0
143
0.0
294
     0
295
     0
296
     0
110
73.09131427762825
120
81.7299893973132
130
0.0
111
1.0
121
0.0
131
0.0
112
0.0
122
1.0
132
0.0
297
     0
302
LEADER{
290
     1
291
     1
 10
73.47482446220016
 20
81.54771427509363
 30
0.0
 11
1.0
 21
0.0
 31
0.0
 90
        0
 40
0.1
304
LEADER_LINE{
 10
73.09131427762825
 20
81.5414379917618
 30
0.0
 91
        0
305
}
271
     0
303
}
272
     9
273
     9
301
}
340
432
 90
   279552
170
     1
 91
-1056964608
341
14
171
    -2
290
     1
291
     1
 41
0.1
 42
0.1
172
     2
343
11
173
     1
 95
        1
174
     1
175
     0
 92
-1056964608
292
     0
 93
-1056964608
 10
1.0
 20
1.0
 30
1.0
 43
0.0
176
     0
293
     0
294
     0
178
   256
179
     1
 45
1.0
271
     0
272
     9
273
     9
295
     0
  0
LWPOLYLINE
  5
17FA
102
{ACAD_REACTORS
330
1812
330
183C
102
}
330
1F
100
AcDbEntity
  8
Board Outline
100
AcDbPolyline
 90
        4
 70
     1
 43
0.0
 10
69.07320913465695
 20
81.91096439731342
 10
73.09131427762825
 20
81.91096439731342
 10
73.09131427762825
 20
80.9013143973134
 10
69.07320913465695
 20
80.9013143973134
  0
HATCH
  5
1812
330
1F
100
AcDbEntity
  8
0
 62
    40
100
AcDbHatch
 10
0.0
 20
0.0
 30
0.0
210
0.0
220
0.0
230
1.0
  2
SOLID
 70
     1
 71
     1
 91
        2
 92
        7
 72
     0
 73
     1
 93
        6
 10
69.07320913465695
 20
81.91096439731342
 10
69.07320913465695
 20
81.79666454646451
 10
70.16020352853671
 20
81.79666454646451
 10
70.16020352853671
 20
80.9013143973134
 10
70.25545352853599
 20
80.9013143973134
 10
70.25545352853599
 20
81.91096439731371
 97
        3
330
1796
330
107D
330
17FA
 92
        7
 72
     0
 73
     1
 93
        7
 10
73.09131427762825
 20
81.79666454646451
 10
73.09131427762825
 20
81.91096439731342
 10
71.58895352853662
 20
81.91096439731342
 10
71.58895352853662
 20
80.9013143973134
 10
71.68420352853637
 20
80.9013143973134
 10
71.68420352853637
 20
81.79666439731347
 10
71.68420352853637
 20
81.79666454646451
 97
        3
330
17FA
330
1797
330
107C
 75
     1
 76
     1
 47
0.0059443038391002
 98
        2
 10
69.41611320893784
 20
81.86566506746094
 10
71.78941603251248
 20
81.85377648972197
450
        0
451
        0
460
0.0
461
0.0
452
        0
462
0.0
453
        2
463
0.0
 63
     5
421
      255
463
1.0
 63
     2
421
 16776960
470
LINEAR
1001
GradientColor1ACI
1070
     5
1001
GradientColor2ACI
1070
     2
1001
ACAD
1010
0.0
1020
0.0
1030
0.0
  0
HATCH
  5
1823
330
1F
100
AcDbEntity
  8
0
 62
   191
100
AcDbHatch
 10
0.0
 20
0.0
 30
0.0
210
0.0
220
0.0
230
1.0
  2
SOLID
 70
     1
 71
     0
 91
        2
 92
        7
 72
     0
 73
     1
 93
        4
 10
70.16020352853671
 20
80.96798939731344
 10
69.07320913465695
 20
80.96798939731344
 10
69.07320913465695
 20
80.9013143973134
 10
70.16020352853671
 20
80.9013143973134
 97
        0
 92
        7
 72
     0
 73
     1
 93
        4
 10
73.09131427762825
 20
80.96798939731344
 10
71.68420352853637
 20
80.96798939731344
 10
71.68420352853637
 20
80.9013143973134
 10
73.09131427762825
 20
80.9013143973134
 97
        0
 75
     1
 76
     1
 47
0.0059443038391002
 98
        2
 10
69.26146189743062
 20
80.95024228119875
 10
72.01544479760653
 20
80.93835370345981
450
        0
451
        0
460
0.0
461
0.0
452
        0
462
0.0
453
        2
463
0.0
 63
     5
421
      255
463
1.0
 63
     2
421
 16776960
470
LINEAR
1001
GradientColor1ACI
1070
     5
1001
GradientColor2ACI
1070
     2
1001
ACAD
1010
0.0
1020
0.0
1030
0.0
  0
HATCH
  5
183C
330
1F
100
AcDbEntity
  8
0
 62
   132
100
AcDbHatch
 10
0.0
 20
0.0
 30
0.0
210
0.0
220
0.0
230
1.0
  2
SOLID
 70
     1
 71
     1
 91
        2
 92
        7
 72
     0
 73
     1
 93
        4
 10
70.16020352853671
 20
81.72998954646455
 10
70.16020352853671
 20
81.79666439731347
 10
69.07320913465695
 20
81.79666439731347
 10
69.07320913465695
 20
81.72998954646482
 97
        3
330
1796
330
17FA
330
107D
 92
        7
 72
     0
 73
     1
 93
        4
 10
71.68420352853637
 20
81.79666439731347
 10
71.68420352853637
 20
81.72998954646455
 10
73.09131427762825
 20
81.72998954646455
 10
73.09131427762825
 20
81.79666439731347
 97
        2
330
1797
330
107C
 75
     1
 76
     1
 47
0.0059443038391002
 98
        2
 10
69.89791156763221
 20
81.7586676451946
 10
71.91432663706533
 20
81.76461193406408
450
        0
451
        0
460
0.0
461
0.0
452
        0
462
0.0
453
        2
463
0.0
 63
     5
421
      255
463
1.0
 63
     2
421
 16776960
470
LINEAR
1001
GradientColor1ACI
1070
     5
1001
GradientColor2ACI
1070
     2
1001
ACAD
1010
0.0
1020
0.0
1030
0.0
  0
MTEXT
  5
183D
330
1F
100
AcDbEntity
  8
_Notes
100
AcDbMText
 10
69.08447261833619
 20
82.0580402752893
 30
0.0
 40
0.1
 41
1.494618311068554
 46
0.0
 71
     1
 72
     5
  1
Primery Side
 73
     1
 44
1.0
101
Embedded Object
 70
     1
 10
1.0
 20
0.0
 30
0.0
 11
69.08447261833619
 21
82.0580402752893
 31
0.0
 40
1.494618311068554
 41
0.0
 42
0.7830150068212825
 43
0.1311050477489768
 71
     2
 72
     1
 44
1.494618311068554
 45
0.6
 73
     0
 74
     0
 46
0.0
  0
MTEXT
  5
183E
330
1F
100
AcDbEntity
  8
_Notes
100
AcDbMText
 10
69.08447261833619
 20
80.84177767196109
 30
0.0
 40
0.1
 41
1.872165509439346
 46
0.0
 71
     1
 72
     5
  1
Secondary Side
 73
     1
 44
1.0
101
Embedded Object
 70
     1
 10
1.0
 20
0.0
 30
0.0
 11
69.08447261833619
 21
80.84177767196109
 31
0.0
 40
1.872165509439346
 41
0.0
 42
0.9742155525238745
 43
0.1311050477489768
 71
     2
 72
     1
 44
1.872165509439346
 45
0.6
 73
     0
 74
     0
 46
0.0
  0
MULTILEADER
  5
1842
102
{ACAD_XDICTIONARY
360
1843
102
}
102
{ACAD_REACTORS
330
1844
102
}
330
1F
100
AcDbEntity
  8
0
160
               664
310
98020000180000000C00000016000000000000C00C00000033000000000000000C00000013000000993A0000D400000026000000DB3933FFD0EE5140A7DF872269225440000000000000000000000000000000000000000000000000000000000000F03F000000000000F03F0000000000000000000000000000000050006C
310
00610074006500640020005400680072007500200048006F006C0065000000200010000000010000009A9999999999B93F000000000000F03F0000000000000000000000000000F03F00000000000000000000000000000000000000000000000000000000010000002200000041007200690061006C000000000000000000
310
00000C00000033000000000000000C00000010000000000000000C00000016000000000000C00C00000012000000FF7F00000C00000013000000010000000C0000001400000001000000540000000700000003000000154A7A973F9551406B5C693EBD55544000000000000000006FADC1595990514002451930FE59544000
310
00000000000000367F48F75C965140D3EEF3E28E57544000000000000000000C00000014000000010000000C00000013000000891300003C0000000600000002000000A5646147CE9551409FA5AE10A6565440000000000000000036A23DFAE7E551405C8777EC8E25544000000000000000000C0000001300000011270000
310
3C000000060000000200000036A23DFAE7E551405C8777EC8E25544000000000000000009C08A4604EEC51405C8777EC8E25544000000000000000000C00000016000000000000C00C00000012000000FF7F00000C00000017000000000000000C000000130000009A3A00000C00000016000000000000C00C000000120000
310
00FF7F00000C00000017000000FFFFFFFF0C0000003300000000000000
100
AcDbMLeader
270
     2
300
CONTEXT_DATA{
 40
1.0
 10
71.69228378313933
 20
80.58684837029199
 30
0.0
 41
0.1
140
0.1
145
0.05
174
     1
175
     1
176
     0
177
     0
290
     1
304
Plated Thru Hole
 11
0.0
 21
0.0
 31
1.0
340
11
 12
71.74228378313933
 22
80.63766692418012
 32
0.0
 13
1.0
 23
0.0
 33
0.0
 42
0.0
 43
1.123964006190475
 44
0.0
 45
1.0
170
     1
 90
-1073741824
171
     1
172
     5
 91
-1073741824
141
0.0
 92
        0
291
     0
292
     0
173
     0
293
     0
142
0.0
143
0.0
294
     0
295
     0
296
     0
110
70.25545352853599
120
81.40613939731341
130
0.0
111
1.0
121
0.0
131
0.0
112
0.0
122
1.0
132
0.0
297
     0
302
LEADER{
290
     1
291
     1
 10
71.59228378313932
 20
80.58684837029199
 30
0.0
 11
1.0
 21
0.0
 31
0.0
 90
        0
 40
0.1
304
LEADER_LINE{
 10
70.25545352853599
 20
81.40613939731341
 30
0.0
 91
        0
305
}
271
     0
303
}
272
     9
273
     9
301
}
340
432
 90
   279552
170
     1
 91
-1056964608
341
14
171
    -2
290
     1
291
     1
 41
0.1
 42
0.1
172
     2
343
11
173
     1
 95
        1
174
     1
175
     0
 92
-1056964608
292
     0
 93
-1056964608
 10
1.0
 20
1.0
 30
1.0
 43
0.0
176
     0
293
     0
294
     0
178
     0
179
     1
 45
1.0
271
     0
272
     9
273
     9
295
     0
  0
ENDSEC
  0
SECTION
  2
OBJECTS
  0
DICTIONARY
  5
C
330
0
100
AcDbDictionary
281
     1
  3
ACAD_CIP_PREVIOUS_PRODUCT_INFO
350
1A5
  3
ACAD_COLOR
350
73
  3
ACAD_DETAILVIEWSTYLE
350
1AB
  3
ACAD_GROUP
350
D
  3
ACAD_LAYOUT
350
1A
  3
ACAD_MATERIAL
350
72
  3
ACAD_MLEADERSTYLE
350
D7
  3
ACAD_MLINESTYLE
350
17
  3
ACAD_PLOTSETTINGS
350
19
  3
ACAD_PLOTSTYLENAME
350
E
  3
ACAD_SCALELIST
350
B6
  3
ACAD_SECTIONVIEWSTYLE
350
1A8
  3
ACAD_TABLESTYLE
350
86
  3
ACAD_VISUALSTYLE
350
99
  3
ACDB_RECOMPOSE_DATA
350
187D
  3
AcDbVariableDictionary
350
66
  0
DICTIONARY
  5
18E
330
2
100
AcDbDictionary
280
     1
281
     1
  3
ACAD_LAYERSTATES
360
18F
  0
DICTIONARY
  5
E6
330
10
100
AcDbDictionary
280
     1
281
     1
  0
DICTIONARY
  5
22B
330
22A
100
AcDbDictionary
280
     1
281
     1
  0
DICTIONARY
  5
22D
330
22C
100
AcDbDictionary
280
     1
281
     1
  0
DICTIONARY
  5
FFB
330
FFA
100
AcDbDictionary
280
     1
281
     1
  0
DICTIONARY
  5
FFD
330
FFC
100
AcDbDictionary
280
     1
281
     1
  0
DICTIONARY
  5
1000
330
FFF
100
AcDbDictionary
280
     1
281
     1
  0
DICTIONARY
  5
1002
330
1001
100
AcDbDictionary
280
     1
281
     1
  0
DICTIONARY
  5
1004
330
1003
100
AcDbDictionary
280
     1
281
     1
  0
DICTIONARY
  5
1006
330
1005
100
AcDbDictionary
280
     1
281
     1
  0
DICTIONARY
  5
15D
330
1F
100
AcDbDictionary
280
     1
281
     1
  3
ACAD_SORTENTS
360
10AF
  0
DICTIONARY
  5
32C
330
31E
100
AcDbDictionary
280
     1
281
     1
  3
ACAD_DIMASSOC
360
337
  0
DICTIONARY
  5
346
330
338
100
AcDbDictionary
280
     1
281
     1
  3
ACAD_DIMASSOC
360
351
  0
DICTIONARY
  5
360
330
352
100
AcDbDictionary
280
     1
281
     1
  3
ACAD_DIMASSOC
360
36B
  0
DICTIONARY
  5
37B
330
36C
100
AcDbDictionary
280
     1
281
     1
  3
ACAD_DIMASSOC
360
387
  0
DICTIONARY
  5
3F5
330
3E6
100
AcDbDictionary
280
     1
281
     1
  3
ACAD_DIMASSOC
360
401
  0
DICTIONARY
  5
434
330
433
100
AcDbDictionary
280
     1
281
     1
  3
ACAD_DIMASSOC
360
435
  0
DICTIONARY
  5
444
330
436
100
AcDbDictionary
280
     1
281
     1
  3
ACAD_DIMASSOC
360
44F
  0
DICTIONARY
  5
46F
330
46E
100
AcDbDictionary
280
     1
281
     1
  3
ACAD_DIMASSOC
360
470
  0
DICTIONARY
  5
475
330
474
100
AcDbDictionary
280
     1
281
     1
  3
ACAD_DIMASSOC
360
476
  0
DICTIONARY
  5
47D
330
47C
100
AcDbDictionary
280
     1
281
     1
  3
ACAD_DIMASSOC
360
47E
  0
DICTIONARY
  5
670
330
66F
100
AcDbDictionary
280
     1
281
     1
  3
ACAD_DIMASSOC
360
671
  0
DICTIONARY
  5
673
330
672
100
AcDbDictionary
280
     1
281
     1
  3
ACAD_DIMASSOC
360
674
  0
DICTIONARY
  5
67A
330
679
100
AcDbDictionary
280
     1
281
     1
  3
ACAD_DIMASSOC
360
67B
  0
DICTIONARY
  5
67D
330
67C
100
AcDbDictionary
280
     1
281
     1
  3
ACAD_DIMASSOC
360
67E
  0
DICTIONARY
  5
680
330
67F
100
AcDbDictionary
280
     1
281
     1
  3
ACAD_DIMASSOC
360
681
  0
DICTIONARY
  5
683
330
682
100
AcDbDictionary
280
     1
281
     1
  3
ACAD_DIMASSOC
360
684
  0
DICTIONARY
  5
EFA
330
EF9
100
AcDbDictionary
280
     1
281
     1
  3
ACAD_DIMASSOC
360
EFB
  0
DICTIONARY
  5
F00
330
EFF
100
AcDbDictionary
280
     1
281
     1
  3
ACAD_DIMASSOC
360
F01
  0
DICTIONARY
  5
1071
330
1070
100
AcDbDictionary
280
     1
281
     1
  0
DICTIONARY
  5
1212
330
1211
100
AcDbDictionary
280
     1
281
     1
  3
ACAD_DIMASSOC
360
1213
  0
DICTIONARY
  5
1554
330
1545
100
AcDbDictionary
280
     1
281
     1
  3
ACAD_DIMASSOC
360
1560
  0
DICTIONARY
  5
1570
330
1561
100
AcDbDictionary
280
     1
281
     1
  3
ACAD_DIMASSOC
360
157C
  0
DICTIONARY
  5
158B
330
157D
100
AcDbDictionary
280
     1
281
     1
  3
ACAD_DIMASSOC
360
1596
  0
DICTIONARY
  5
15A5
330
1597
100
AcDbDictionary
280
     1
281
     1
  3
ACAD_DIMASSOC
360
15B0
  0
DICTIONARY
  5
15C1
330
15B3
100
AcDbDictionary
280
     1
281
     1
  3
ACAD_DIMASSOC
360
15CC
  0
DICTIONARY
  5
174F
330
1741
100
AcDbDictionary
280
     1
281
     1
  3
ACAD_DIMASSOC
360
175A
  0
DICTIONARY
  5
1769
330
175B
100
AcDbDictionary
280
     1
281
     1
  3
ACAD_DIMASSOC
360
1774
  0
DICTIONARY
  5
17D7
330
17D6
100
AcDbDictionary
280
     1
281
     1
  3
ACAD_DIMASSOC
360
17D8
  0
DICTIONARY
  5
1843
330
1842
100
AcDbDictionary
280
     1
281
     1
  3
ACAD_DIMASSOC
360
1844
  0
XRECORD
  5
1A5
102
{ACAD_REACTORS
330
C
102
}
330
C
100
AcDbXrecord
280
     1
300
ACD
300
2021
300

  0
DICTIONARY
  5
73
102
{ACAD_REACTORS
330
C
102
}
330
C
100
AcDbDictionary
281
     1
  0
DICTIONARY
  5
1AB
102
{ACAD_REACTORS
330
C
102
}
330
C
100
AcDbDictionary
281
     1
  3
Imperial24
350
1AC
  0
DICTIONARY
  5
D
102
{ACAD_REACTORS
330
C
102
}
330
C
100
AcDbDictionary
281
     1
  0
DICTIONARY
  5
1A
102
{ACAD_REACTORS
330
C
102
}
330
C
100
AcDbDictionary
281
     1
  3
Layout1
350
59
  3
Layout2
350
5E
  3
Model
350
22
  0
DICTIONARY
  5
72
102
{ACAD_REACTORS
330
C
102
}
330
C
100
AcDbDictionary
281
     1
  3
ByBlock
350
97
  3
ByLayer
350
96
  3
Global
350
98
  0
DICTIONARY
  5
D7
102
{ACAD_REACTORS
330
C
102
}
330
C
100
AcDbDictionary
281
     1
  3
Annotative
350
E5
  3
Bing_1
350
432
  3
Standard
350
D8
  0
DICTIONARY
  5
17
102
{ACAD_REACTORS
330
C
102
}
330
C
100
AcDbDictionary
281
     1
  3
Standard
350
18
  0
DICTIONARY
  5
19
102
{ACAD_REACTORS
330
C
102
}
330
C
100
AcDbDictionary
281
     1
  0
ACDBDICTIONARYWDFLT
  5
E
102
{ACAD_REACTORS
330
C
102
}
330
C
100
AcDbDictionary
281
     1
  3
Normal
350
F
100
AcDbDictionaryWithDefault
340
F
  0
DICTIONARY
  5
B6
102
{ACAD_REACTORS
330
C
102
}
330
C
100
AcDbDictionary
281
     1
  3
A0
350
B7
  3
A1
350
124
  3
A2
350
125
  3
A3
350
126
  3
A4
350
127
  3
A5
350
128
  3
A6
350
129
  3
A7
350
12A
  3
A8
350
12B
  3
A9
350
12C
  3
B0
350
12D
  3
B1
350
12E
  3
B2
350
12F
  3
B3
350
130
  3
B4
350
131
  3
B5
350
132
  3
B6
350
133
  3
B7
350
134
  3
B8
350
135
  3
B9
350
136
  3
C0
350
137
  3
C1
350
138
  3
C2
350
139
  3
C3
350
13A
  3
C4
350
13B
  3
C5
350
13C
  3
C6
350
13D
  3
C7
350
13E
  3
C8
350
13F
  3
C9
350
140
  3
D0
350
141
  3
D1
350
142
  3
D2
350
143
  0
DICTIONARY
  5
1A8
102
{ACAD_REACTORS
330
C
102
}
330
C
100
AcDbDictionary
281
     1
  3
Imperial24
350
1AA
  0
DICTIONARY
  5
86
102
{ACAD_REACTORS
330
C
102
}
330
C
100
AcDbDictionary
281
     1
  3
Standard
350
87
  0
DICTIONARY
  5
99
102
{ACAD_REACTORS
330
C
102
}
330
C
100
AcDbDictionary
281
     1
  3
2dWireframe
350
9F
  3
Basic
350
9E
  3
Brighten
350
A5
  3
ColorChange
350
A9
  3
Conceptual
350
A2
  3
Dim
350
A4
  3
EdgeColorOff
350
175
  3
Facepattern
350
A8
  3
Flat
350
9A
  3
FlatWithEdges
350
9B
  3
Gouraud
350
9C
  3
GouraudWithEdges
350
9D
  3
Hidden
350
A1
  3
JitterOff
350
173
  3
Linepattern
350
A7
  3
OverhangOff
350
174
  3
Realistic
350
A3
  3
Shaded
350
182
  3
Shaded with edges
350
181
  3
Shades of Gray
350
17E
  3
Sketchy
350
17F
  3
Thicken
350
A6
  3
Wireframe
350
A0
  3
X-Ray
350
180
  0
XRECORD
  5
187D
102
{ACAD_REACTORS
330
C
102
}
330
C
100
AcDbXrecord
280
     1
 90
        1
330
87
  0
DICTIONARY
  5
66
102
{ACAD_REACTORS
330
C
102
}
330
C
100
AcDbDictionary
281
     1
  3
CANNOSCALE
350
F0
  3
CMLEADERSTYLE
350
EF
  3
CTABLESTYLE
350
89
  3
CVIEWDETAILSTYLE
350
1B7
  3
CVIEWSECTIONSTYLE
350
1B8
  3
DIMASSOC
350
67
  3
HIDETEXT
350
6B
  3
HPCOLOR
350
10B1
  3
HPTRANSPARENCY
350
10B0
  3
LAYEREVAL
350
14D
  3
LAYERNOTIFY
350
14E
  0
DICTIONARY
  5
18F
102
{ACAD_REACTORS
330
18E
102
}
330
18E
100
AcDbDictionary
281
     1
  0
SORTENTSTABLE
  5
10AF
102
{ACAD_REACTORS
330
15D
102
}
330
15D
100
AcDbSortentsTable
330
1F
331
667
  5
66A
331
668
  5
66C
331
669
  5
66D
331
66A
  5
66E
331
66B
  5
66F
331
66C
  5
672
331
66D
  5
675
331
66E
  5
676
331
66F
  5
679
331
672
  5
67C
331
675
  5
67F
331
679
  5
685
331
67C
  5
688
331
67F
  5
D5C
331
682
  5
D5D
331
688
  5
D5F
331
EE3
  5
EED
331
EE4
  5
EF0
331
EE5
  5
EF1
331
EE6
  5
EF3
331
EE7
  5
EF6
331
EE8
  5
EF9
331
EE9
  5
EFC
331
EEA
  5
EFF
331
EEB
  5
F02
331
EEC
  5
F03
331
EED
  5
104A
331
EEE
  5
104B
331
EEF
  5
104D
331
EF0
  5
104E
331
EF1
  5
104F
331
EF2
  5
1050
331
EF9
  5
1053
331
EFF
  5
1055
331
F02
  5
1056
331
F03
  5
1057
331
104B
  5
1078
331
104F
  5
111E
331
1052
  5
1210
331
1055
  5
1211
331
1057
  5
1484
331
105A
  5
1485
331
1070
  5
148C
331
1073
  5
148D
331
1074
  5
1545
331
107C
  5
1561
331
107D
  5
157D
331
10B3
  5
EEE
331
10B5
  5
104C
331
10DE
  5
EEC
331
111C
  5
669
331
111D
  5
1597
331
111E
  5
15B3
331
111F
  5
1741
331
1120
  5
175B
331
1122
  5
1795
331
1125
  5
1775
331
1126
  5
1796
331
1127
  5
1797
331
1128
  5
1798
331
1210
  5
1799
331
1211
  5
179A
331
1483
  5
179C
331
1484
  5
179D
331
1485
  5
17D3
331
148C
  5
17D6
331
148D
  5
17D9
331
1545
  5
17FA
331
1561
  5
17FB
331
157D
  5
17FD
331
1597
  5
17FE
331
15B3
  5
17FF
331
1741
  5
1813
331
175B
  5
1814
331
1775
  5
1815
331
1796
  5
1483
331
1797
  5
1128
331
17D3
  5
1816
331
17D6
  5
1824
331
17D9
  5
1826
331
17FA
  5
1833
331
1812
  5
111F
331
1823
  5
1075
331
183C
  5
1125
  0
DIMASSOC
  5
337
102
{ACAD_REACTORS
330
32C
102
}
330
32C
100
AcDbDimAssoc
330
31E
 90
        3
 70
     0
 71
     0
  1
AcDbOsnapPointRef
 72
     1
331
249
 73
     2
 91
        1
 40
1.0
 10
0.0
 20
0.0
 30
2.000000000000000E+50
 75
     0
  1
AcDbOsnapPointRef
 72
    13
331
249
 73
     2
 91
        1
 40
0.0
 10
0.0
 20
0.0
 30
2.000000000000000E+50
 75
     0
  0
DIMASSOC
  5
351
102
{ACAD_REACTORS
330
346
102
}
330
346
100
AcDbDimAssoc
330
338
 90
        2
 70
     0
 71
     0
  1
AcDbOsnapPointRef
 72
     1
331
249
 73
     2
 91
        3
 40
1.0
 10
0.0
 20
0.0
 30
2.000000000000000E+50
 75
     0
  0
DIMASSOC
  5
36B
102
{ACAD_REACTORS
330
360
102
}
330
360
100
AcDbDimAssoc
330
352
 90
        3
 70
     0
 71
     0
  1
AcDbOsnapPointRef
 72
     2
331
268
 73
     2
 91
        1
 40
0.5
 10
0.0
 20
0.0
 30
0.0
 75
     0
  1
AcDbOsnapPointRef
 72
     2
331
268
 73
     2
 91
        5
 40
0.5
 10
0.0
 20
0.0
 30
0.0
 75
     0
  0
DIMASSOC
  5
387
102
{ACAD_REACTORS
330
37B
102
}
330
37B
100
AcDbDimAssoc
330
36C
 90
        3
 70
     0
 71
     0
  1
AcDbOsnapPointRef
 72
     2
331
268
 73
     2
 91
        7
 40
0.5
 10
0.0
 20
0.0
 30
0.0
 75
     0
  1
AcDbOsnapPointRef
 72
     2
331
268
 73
     2
 91
        3
 40
0.5
 10
0.0
 20
0.0
 30
0.0
 75
     0
  0
DIMASSOC
  5
401
102
{ACAD_REACTORS
330
3F5
102
}
330
3F5
100
AcDbDimAssoc
330
3E6
 90
        2
 70
     0
 71
     0
  1
AcDbOsnapPointRef
 72
     8
331
25E
 73
     2
 91
        3
 40
0.1810755115058232
 10
0.0
 20
0.0
 30
0.0
 75
     1
  1
AcDbOsnapPointRef
 72
     0
 40
0.0
 10
64.60670748853067
 20
85.35159324798938
 30
0.0
 75
     0
  0
DIMASSOC
  5
435
102
{ACAD_REACTORS
330
434
102
}
330
434
100
AcDbDimAssoc
330
433
 90
        1
 70
     0
 71
     0
  1
AcDbOsnapPointRef
 72
     5
331
26C
 73
     2
 91
        0
 40
3.141592653589792
 10
0.0
 20
0.0
 30
0.0
 75
     0
  0
DIMASSOC
  5
44F
102
{ACAD_REACTORS
330
444
102
}
330
444
100
AcDbDimAssoc
330
436
 90
        3
 70
     0
 71
     0
  1
AcDbOsnapPointRef
 72
    10
331
26B
 73
     2
 91
        1
 40
0.7146415616755674
 10
0.0
 20
0.0
 30
0.0
 75
     0
  1
AcDbOsnapPointRef
 72
     8
331
26B
 73
     2
 91
        5
 40
0.2853584383244326
 10
0.0
 20
0.0
 30
0.0
 75
     1
  1
AcDbOsnapPointRef
 72
    10
331
26B
 73
     2
 91
        1
 40
0.7146415616755674
 10
0.0
 20
0.0
 30
0.0
 75
     0
  0
DIMASSOC
  5
470
102
{ACAD_REACTORS
330
46F
102
}
330
46F
100
AcDbDimAssoc
330
46E
 90
        1
 70
     0
 71
     0
  1
AcDbOsnapPointRef
 72
     2
331
26B
 73
     2
 91
       12
 40
0.5
 10
0.0
 20
0.0
 30
0.0
 75
     0
  0
DIMASSOC
  5
476
102
{ACAD_REACTORS
330
475
102
}
330
475
100
AcDbDimAssoc
330
474
 90
        1
 70
     0
 71
     0
  1
AcDbOsnapPointRef
 72
     2
331
266
 73
     2
 91
        7
 40
0.5
 10
0.0
 20
0.0
 30
0.0
 75
     0
  0
DIMASSOC
  5
47E
102
{ACAD_REACTORS
330
47D
102
}
330
47D
100
AcDbDimAssoc
330
47C
 90
        1
 70
     0
 71
     0
  1
AcDbOsnapPointRef
 72
     2
331
26A
 73
     2
 91
        7
 40
0.5
 10
0.0
 20
0.0
 30
0.0
 75
     0
  0
DIMASSOC
  5
671
102
{ACAD_REACTORS
330
670
102
}
330
670
100
AcDbDimAssoc
330
66F
 90
        3
 70
     0
 71
     0
  1
AcDbOsnapPointRef
 72
     2
331
668
 73
     2
 91
        4
 40
0.5
 10
0.0
 20
0.0
 30
0.0
 75
     0
  1
AcDbOsnapPointRef
 72
     2
331
668
 73
     2
 91
        2
 40
0.5
 10
0.0
 20
0.0
 30
0.0
 75
     0
  0
DIMASSOC
  5
674
102
{ACAD_REACTORS
330
673
102
}
330
673
100
AcDbDimAssoc
330
672
 90
        3
 70
     0
 71
     0
  1
AcDbOsnapPointRef
 72
     1
331
667
 73
     2
 91
        4
 40
1.0
 10
0.0
 20
0.0
 30
2.000000000000000E+50
 75
     0
  1
AcDbOsnapPointRef
 72
     1
331
667
 73
     2
 91
        1
 40
1.0
 10
0.0
 20
0.0
 30
2.000000000000000E+50
 75
     0
  0
DIMASSOC
  5
67B
102
{ACAD_REACTORS
330
67A
102
}
330
67A
100
AcDbDimAssoc
330
679
 90
        2
 70
     0
 71
     0
  1
AcDbOsnapPointRef
 72
     3
331
66B
 73
     2
 91
        0
 40
0.0
 10
0.0
 20
0.0
 30
0.0
 75
     0
  0
DIMASSOC
  5
67E
102
{ACAD_REACTORS
330
67D
102
}
330
67D
100
AcDbDimAssoc
330
67C
 90
        3
 70
     0
 71
     0
  1
AcDbOsnapPointRef
 72
     1
331
668
 73
     2
 91
        3
 40
1.0
 10
0.0
 20
0.0
 30
2.000000000000000E+50
 75
     0
  1
AcDbOsnapPointRef
 72
    13
331
668
 73
     2
 91
        1
 40
0.0
 10
0.0
 20
0.0
 30
2.000000000000000E+50
 75
     0
  0
DIMASSOC
  5
681
102
{ACAD_REACTORS
330
680
102
}
330
680
100
AcDbDimAssoc
330
67F
 90
        3
 70
     0
 71
     0
  1
AcDbOsnapPointRef
 72
    11
331
66A
 73
     2
 91
        4
 40
0.0
 10
0.0
 20
0.0
 30
0.0
332
668
 74
     2
 92
        3
 75
     0
  1
AcDbOsnapPointRef
 72
     1
331
66A
 73
     2
 91
        4
 40
1.0
 10
0.0
 20
0.0
 30
2.000000000000000E+50
 75
     0
  0
DIMASSOC
  5
684
102
{ACAD_REACTORS
330
683
102
}
330
683
100
AcDbDimAssoc
330
682
 90
        2
 70
     0
 71
     0
  1
AcDbOsnapPointRef
 72
     1
331
66A
 73
     2
 91
        5
 40
1.0
 10
0.0
 20
0.0
 30
2.000000000000000E+50
 75
     0
  0
DIMASSOC
  5
EFB
102
{ACAD_REACTORS
330
EFA
102
}
330
EFA
100
AcDbDimAssoc
330
EF9
 90
        3
 70
     0
 71
     0
  1
AcDbOsnapPointRef
 72
     1
331
EE7
 73
     2
 91
        1
 40
1.0
 10
0.0
 20
0.0
 30
2.000000000000000E+50
 75
     0
  1
AcDbOsnapPointRef
 72
     1
331
EE8
 73
     2
 91
        2
 40
1.0
 10
0.0
 20
0.0
 30
2.000000000000000E+50
 75
     0
  0
DIMASSOC
  5
F01
102
{ACAD_REACTORS
330
F00
102
}
330
F00
100
AcDbDimAssoc
330
EFF
 90
        3
 70
     0
 71
     0
  1
AcDbOsnapPointRef
 72
     2
331
EF0
 73
     2
 91
        2
 40
0.5
 10
0.0
 20
0.0
 30
0.0
 75
     0
  1
AcDbOsnapPointRef
 72
     8
331
EF0
 73
     2
 91
        7
 40
0.7071350176982733
 10
0.0
 20
0.0
 30
0.0
 75
     1
  1
AcDbOsnapPointRef
 72
     2
331
EF0
 73
     2
 91
        2
 40
0.5
 10
0.0
 20
0.0
 30
0.0
 75
     0
  0
DIMASSOC
  5
1213
102
{ACAD_REACTORS
330
1212
102
}
330
1212
100
AcDbDimAssoc
330
1211
 90
        1
 70
     0
 71
     0
  1
AcDbOsnapPointRef
 72
     2
331
EE5
 73
     2
 91
        4
 40
0.5
 10
0.0
 20
0.0
 30
0.0
 75
     0
  0
DIMASSOC
  5
1560
102
{ACAD_REACTORS
330
1554
102
}
330
1554
100
AcDbDimAssoc
330
1545
 90
        3
 70
     0
 71
     0
  1
AcDbOsnapPointRef
 72
     2
331
66A
 73
     2
 91
        6
 40
0.5
 10
0.0
 20
0.0
 30
0.0
 75
     0
  1
AcDbOsnapPointRef
 72
     8
331
66A
 73
     2
 91
        3
 40
0.500000000002308
 10
0.0
 20
0.0
 30
0.0
 75
     1
  1
AcDbOsnapPointRef
 72
     2
331
66A
 73
     2
 91
        6
 40
0.5
 10
0.0
 20
0.0
 30
0.0
 75
     0
  0
DIMASSOC
  5
157C
102
{ACAD_REACTORS
330
1570
102
}
330
1570
100
AcDbDimAssoc
330
1561
 90
        3
 70
     0
 71
     0
  1
AcDbOsnapPointRef
 72
     3
331
66D
 73
     2
 91
        0
 40
0.0
 10
0.0
 20
0.0
 30
0.0
 75
     0
  1
AcDbOsnapPointRef
 72
     3
331
66C
 73
     2
 91
        0
 40
0.0
 10
0.0
 20
0.0
 30
0.0
 75
     0
  0
DIMASSOC
  5
1596
102
{ACAD_REACTORS
330
158B
102
}
330
158B
100
AcDbDimAssoc
330
157D
 90
        2
 70
     0
 71
     0
  1
AcDbOsnapPointRef
 72
     8
331
EE4
 73
     2
 91
        4
 40
0.0
 10
0.0
 20
0.0
 30
0.0
 75
     1
  1
AcDbOsnapPointRef
 72
     0
 40
0.0
 10
59.08593002773761
 20
81.62562398102695
 30
0.0
 75
     0
  0
DIMASSOC
  5
15B0
102
{ACAD_REACTORS
330
15A5
102
}
330
15A5
100
AcDbDimAssoc
330
1597
 90
        3
 70
     0
 71
     0
  1
AcDbOsnapPointRef
 72
    11
331
EF1
 73
     2
 91
        3
 40
1.0
 10
0.0
 20
0.0
 30
0.0
332
EE4
 74
     2
 92
        3
 75
     0
  1
AcDbOsnapPointRef
 72
     8
331
EE4
 73
     2
 91
        1
 40
0.0
 10
0.0
 20
0.0
 30
0.0
 75
     1
  1
AcDbOsnapPointRef
 72
    11
331
EF1
 73
     2
 91
        3
 40
1.0
 10
0.0
 20
0.0
 30
0.0
332
EE4
 74
     2
 92
        3
 75
     0
  0
DIMASSOC
  5
15CC
102
{ACAD_REACTORS
330
15C1
102
}
330
15C1
100
AcDbDimAssoc
330
15B3
 90
        3
 70
     0
 71
     0
  1
AcDbOsnapPointRef
 72
     1
331
EEA
 73
     2
 91
        2
 40
1.0
 10
0.0
 20
0.0
 30
2.000000000000000E+50
 75
     0
  1
AcDbOsnapPointRef
 72
     1
331
EE7
 73
     2
 91
        3
 40
1.0
 10
0.0
 20
0.0
 30
2.000000000000000E+50
 75
     0
  0
DIMASSOC
  5
175A
102
{ACAD_REACTORS
330
174F
102
}
330
174F
100
AcDbDimAssoc
330
1741
 90
        2
 70
     0
 71
     0
  1
AcDbOsnapPointRef
 72
     8
331
25E
 73
     2
 91
        2
 40
0.8804052480396926
 10
0.0
 20
0.0
 30
0.0
 75
     1
  1
AcDbOsnapPointRef
 72
     0
 40
0.0
 10
64.60670748853067
 20
89.23115781365316
 30
0.0
 75
     0
  0
DIMASSOC
  5
1774
102
{ACAD_REACTORS
330
1769
102
}
330
1769
100
AcDbDimAssoc
330
175B
 90
        1
 70
     0
 71
     0
  1
AcDbOsnapPointRef
 72
    14
331
26A
 73
     2
 91
        0
 40
6.5
 10
0.0
 20
0.0
 30
0.0
 75
     0
  0
DIMASSOC
  5
17D8
102
{ACAD_REACTORS
330
17D7
102
}
330
17D7
100
AcDbDimAssoc
330
17D6
 90
        1
 70
     0
 71
     0
  1
AcDbOsnapPointRef
 72
     2
331
104B
 73
     2
 91
        2
 40
0.5
 10
0.0
 20
0.0
 30
0.0
 75
     0
  0
DIMASSOC
  5
1844
102
{ACAD_REACTORS
330
1843
102
}
330
1843
100
AcDbDimAssoc
330
1842
 90
        1
 70
     0
 71
     0
  1
AcDbOsnapPointRef
 72
     2
331
1074
 73
     2
 91
        0
 40
0.5
 10
0.0
 20
0.0
 30
0.0
 75
     0
  0
ACDBDETAILVIEWSTYLE
  5
1AC
102
{ACAD_REACTORS
330
1AB
102
}
330
1AB
100
AcDbModelDocViewStyle
 70
     0
  3
Imperial24
290
     0
300
Imperial24
 90
        0
100
AcDbDetailViewStyle
 70
     0
 71
     0
 90
        3
 71
     1
340
11
 62
   256
 40
0.24
340
0
 62
   256
 40
0.24
300

 40
0.36
280
     3
 71
     2
340
16
 90
       25
 62
   256
 71
     3
340
11
 62
   256
 40
0.24
 90
        1
 40
0.75
 90
        1
300
%<\AcVar ViewType \f "%tc1">% %<\AcVar ViewDetailId>%\PSCALE %<\AcVar ViewScale \f "%sn">%
 71
     4
340
16
 90
       25
 62
   256
340
16
 90
       25
 62
   256
280
     0
  0
LAYOUT
  5
59
102
{ACAD_REACTORS
330
1A
102
}
330
1A
100
AcDbPlotSettings
  1

  2
None
  4

  6

 40
0.0
 41
0.0
 42
0.0
 43
0.0
 44
0.0
 45
0.0
 46
0.0
 47
0.0
 48
0.0
 49
0.0
140
0.0
141
0.0
142
1.0
143
1.0
 70
   688
 72
     0
 73
     0
 74
     5
  7

 75
    16
147
1.0
 76
     0
 77
     2
 78
   300
148
0.0
149
0.0
100
AcDbLayout
  1
Layout1
 70
     1
 71
     1
 10
0.0
 20
0.0
 11
12.0
 21
9.0
 12
0.0
 22
0.0
 32
0.0
 14
0.0
 24
0.0
 34
0.0
 15
0.0
 25
0.0
 35
0.0
146
0.0
 13
0.0
 23
0.0
 33
0.0
 16
1.0
 26
0.0
 36
0.0
 17
0.0
 27
1.0
 37
0.0
 76
     0
330
58
  0
LAYOUT
  5
5E
102
{ACAD_REACTORS
330
1A
102
}
330
1A
100
AcDbPlotSettings
  1

  2
None
  4

  6

 40
0.0
 41
0.0
 42
0.0
 43
0.0
 44
0.0
 45
0.0
 46
0.0
 47
0.0
 48
0.0
 49
0.0
140
0.0
141
0.0
142
1.0
143
1.0
 70
   688
 72
     0
 73
     0
 74
     5
  7

 75
    16
147
1.0
 76
     0
 77
     2
 78
   300
148
0.0
149
0.0
100
AcDbLayout
  1
Layout2
 70
     1
 71
     2
 10
0.0
 20
0.0
 11
12.0
 21
9.0
 12
0.0
 22
0.0
 32
0.0
 14
0.0
 24
0.0
 34
0.0
 15
0.0
 25
0.0
 35
0.0
146
0.0
 13
0.0
 23
0.0
 33
0.0
 16
1.0
 26
0.0
 36
0.0
 17
0.0
 27
1.0
 37
0.0
 76
     0
330
5D
  0
LAYOUT
  5
22
102
{ACAD_XDICTIONARY
360
194
102
}
102
{ACAD_REACTORS
330
1A
102
}
330
1A
100
AcDbPlotSettings
  1

  2
none_device
  4
ANSI_A_(8.50_x_11.00_Inches)
  6

 40
6.349999904632567
 41
19.04999923706055
 42
6.350006103515625
 43
19.04998779296875
 44
215.8999938964844
 45
279.3999938964844
 46
0.0
 47
0.0
 48
0.0
 49
0.0
140
0.0
141
0.0
142
1.0
143
2.584895464708373
 70
 11952
 72
     0
 73
     1
 74
     0
  7

 75
     0
147
0.3868628397755418
 76
     0
 77
     2
 78
   300
148
0.0
149
0.0
100
AcDbLayout
  1
Model
 70
     1
 71
     0
 10
0.0
 20
0.0
 11
12.0
 21
9.0
 12
0.0
 22
0.0
 32
0.0
 14
0.0
 24
0.0
 34
0.0
 15
0.0
 25
0.0
 35
0.0
146
0.0
 13
0.0
 23
0.0
 33
0.0
 16
1.0
 26
0.0
 36
0.0
 17
0.0
 27
1.0
 37
0.0
 76
     0
330
1F
331
94
  0
MATERIAL
  5
97
102
{ACAD_XDICTIONARY
360
188
102
}
102
{ACAD_REACTORS
330
72
102
}
330
72
100
AcDbMaterial
  1
ByBlock
 94
       63
  0
MATERIAL
  5
96
102
{ACAD_XDICTIONARY
360
186
102
}
102
{ACAD_REACTORS
330
72
102
}
330
72
100
AcDbMaterial
  1
ByLayer
 94
       63
  0
MATERIAL
  5
98
102
{ACAD_XDICTIONARY
360
110
102
}
102
{ACAD_REACTORS
330
72
102
}
330
72
100
AcDbMaterial
  1
Global
 43
0.0208000000566244
 43
0.0
 43
0.0
 43
0.0
 43
0.0
 43
0.0208000000566244
 43
0.0
 43
0.0
 43
0.0
 43
0.0
 43
1.0
 43
0.0
 43
0.0
 43
0.0
 43
0.0
 43
1.0
 49
0.0208000000566244
 49
0.0
 49
0.0
 49
0.0
 49
0.0
 49
0.0208000000566244
 49
0.0
 49
0.0
 49
0.0
 49
0.0
 49
1.0
 49
0.0
 49
0.0
 49
0.0
 49
0.0
 49
1.0
142
0.0208000000566244
142
0.0
142
0.0
142
0.0
142
0.0
142
0.0208000000566244
142
0.0
142
0.0
142
0.0
142
0.0
142
1.0
142
0.0
142
0.0
142
0.0
142
0.0
142
1.0
144
0.0208000000566244
144
0.0
144
0.0
144
0.0
144
0.0
144
0.0208000000566244
144
0.0
144
0.0
144
0.0
144
0.0
144
1.0
144
0.0
144
0.0
144
0.0
144
0.0
144
1.0
 94
       63
1001
ACAD
1070
    -1
1070
     3
1070
     0
1000

1071
        0
1070
     0
  0
MLEADERSTYLE
  5
E5
102
{ACAD_REACTORS
330
D7
102
}
330
D7
100
AcDbMLeaderStyle
179
     2
170
     2
171
     1
172
     0
 90
        2
 40
0.0
 41
0.0
173
     1
 91
-1056964608
340
14
 92
       -2
290
     1
 42
0.09
291
     1
 43
0.36
  3
Standard
 44
0.18
300

342
11
174
     1
178
     1
175
     1
176
     0
 93
-1056964608
 45
0.18
292
     0
297
     0
 46
0.18
 94
-1056964608
 47
1.0
 49
1.0
140
1.0
293
     1
141
0.0
294
     1
177
     0
142
1.0
295
     0
296
     1
143
0.125
271
     0
272
     9
273
     9
298
     0
  0
MLEADERSTYLE
  5
432
102
{ACAD_REACTORS
330
D7
330
433
330
46E
330
474
330
47A
330
47B
330
47C
330
1211
330
17D3
330
17D6
330
17D9
330
1842
102
}
330
D7
100
AcDbMLeaderStyle
179
     2
170
     2
171
     1
172
     0
 90
        2
 40
0.0
 41
0.0
173
     1
 91
-1056964608
340
14
 92
       -2
290
     1
 42
0.05
291
     1
 43
0.1
  3
Standard
 44
0.1
300

342
11
174
     1
178
     1
175
     1
176
     0
 93
-1056964608
 45
0.1
292
     0
297
     0
 46
0.18
 94
-1056964608
 47
1.0
 49
1.0
140
1.0
293
     1
141
0.0
294
     1
177
     0
142
1.0
295
     0
296
     0
143
0.1
271
     0
272
     9
273
     9
298
     0
  0
MLEADERSTYLE
  5
D8
102
{ACAD_REACTORS
330
D7
330
675
330
F02
102
}
330
D7
100
AcDbMLeaderStyle
179
     2
170
     2
171
     1
172
     0
 90
        2
 40
0.0
 41
0.0
173
     1
 91
-1056964608
340
14
 92
       -2
290
     1
 42
0.09
291
     1
 43
0.36
  3
Standard
 44
0.18
300

342
11
174
     1
178
     1
175
     1
176
     0
 93
-1056964608
 45
0.18
292
     0
297
     0
 46
0.18
 94
-1056964608
 47
1.0
 49
1.0
140
1.0
293
     1
141
0.0
294
     1
177
     0
142
1.0
295
     0
296
     0
143
0.125
271
     0
272
     9
273
     9
298
     0
  0
MLINESTYLE
  5
18
102
{ACAD_REACTORS
330
17
102
}
330
17
100
AcDbMlineStyle
  2
STANDARD
 70
     0
  3

 62
   256
 51
90.0
 52
90.0
 71
     2
 49
0.5
 62
   256
  6
BYLAYER
 49
-0.5
 62
   256
  6
BYLAYER
  0
ACDBPLACEHOLDER
  5
F
102
{ACAD_REACTORS
330
E
102
}
330
E
  0
SCALE
  5
B7
102
{ACAD_REACTORS
330
B6
102
}
330
B6
100
AcDbScale
 70
     0
300
1:1
140
1.0
141
1.0
290
     1
  0
SCALE
  5
124
102
{ACAD_REACTORS
330
B6
102
}
330
B6
100
AcDbScale
 70
     0
300
1:2
140
1.0
141
2.0
290
     0
  0
SCALE
  5
125
102
{ACAD_REACTORS
330
B6
102
}
330
B6
100
AcDbScale
 70
     0
300
1:4
140
1.0
141
4.0
290
     0
  0
SCALE
  5
126
102
{ACAD_REACTORS
330
B6
102
}
330
B6
100
AcDbScale
 70
     0
300
1:5
140
1.0
141
5.0
290
     0
  0
SCALE
  5
127
102
{ACAD_REACTORS
330
B6
102
}
330
B6
100
AcDbScale
 70
     0
300
1:8
140
1.0
141
8.0
290
     0
  0
SCALE
  5
128
102
{ACAD_REACTORS
330
B6
102
}
330
B6
100
AcDbScale
 70
     0
300
1:10
140
1.0
141
10.0
290
     0
  0
SCALE
  5
129
102
{ACAD_REACTORS
330
B6
102
}
330
B6
100
AcDbScale
 70
     0
300
1:16
140
1.0
141
16.0
290
     0
  0
SCALE
  5
12A
102
{ACAD_REACTORS
330
B6
102
}
330
B6
100
AcDbScale
 70
     0
300
1:20
140
1.0
141
20.0
290
     0
  0
SCALE
  5
12B
102
{ACAD_REACTORS
330
B6
102
}
330
B6
100
AcDbScale
 70
     0
300
1:30
140
1.0
141
30.0
290
     0
  0
SCALE
  5
12C
102
{ACAD_REACTORS
330
B6
102
}
330
B6
100
AcDbScale
 70
     0
300
1:40
140
1.0
141
40.0
290
     0
  0
SCALE
  5
12D
102
{ACAD_REACTORS
330
B6
102
}
330
B6
100
AcDbScale
 70
     0
300
1:50
140
1.0
141
50.0
290
     0
  0
SCALE
  5
12E
102
{ACAD_REACTORS
330
B6
102
}
330
B6
100
AcDbScale
 70
     0
300
1:100
140
1.0
141
100.0
290
     0
  0
SCALE
  5
12F
102
{ACAD_REACTORS
330
B6
102
}
330
B6
100
AcDbScale
 70
     0
300
2:1
140
2.0
141
1.0
290
     0
  0
SCALE
  5
130
102
{ACAD_REACTORS
330
B6
102
}
330
B6
100
AcDbScale
 70
     0
300
4:1
140
4.0
141
1.0
290
     0
  0
SCALE
  5
131
102
{ACAD_REACTORS
330
B6
102
}
330
B6
100
AcDbScale
 70
     0
300
8:1
140
8.0
141
1.0
290
     0
  0
SCALE
  5
132
102
{ACAD_REACTORS
330
B6
102
}
330
B6
100
AcDbScale
 70
     0
300
10:1
140
10.0
141
1.0
290
     0
  0
SCALE
  5
133
102
{ACAD_REACTORS
330
B6
102
}
330
B6
100
AcDbScale
 70
     0
300
100:1
140
100.0
141
1.0
290
     0
  0
SCALE
  5
134
102
{ACAD_REACTORS
330
B6
102
}
330
B6
100
AcDbScale
 70
     0
300
1/128" = 1'-0"
140
0.0078125
141
12.0
290
     0
  0
SCALE
  5
135
102
{ACAD_REACTORS
330
B6
102
}
330
B6
100
AcDbScale
 70
     0
300
1/64" = 1'-0"
140
0.015625
141
12.0
290
     0
  0
SCALE
  5
136
102
{ACAD_REACTORS
330
B6
102
}
330
B6
100
AcDbScale
 70
     0
300
1/32" = 1'-0"
140
0.03125
141
12.0
290
     0
  0
SCALE
  5
137
102
{ACAD_REACTORS
330
B6
102
}
330
B6
100
AcDbScale
 70
     0
300
1/16" = 1'-0"
140
0.0625
141
12.0
290
     0
  0
SCALE
  5
138
102
{ACAD_REACTORS
330
B6
102
}
330
B6
100
AcDbScale
 70
     0
300
3/32" = 1'-0"
140
0.09375
141
12.0
290
     0
  0
SCALE
  5
139
102
{ACAD_REACTORS
330
B6
102
}
330
B6
100
AcDbScale
 70
     0
300
1/8" = 1'-0"
140
0.125
141
12.0
290
     0
  0
SCALE
  5
13A
102
{ACAD_REACTORS
330
B6
102
}
330
B6
100
AcDbScale
 70
     0
300
3/16" = 1'-0"
140
0.1875
141
12.0
290
     0
  0
SCALE
  5
13B
102
{ACAD_REACTORS
330
B6
102
}
330
B6
100
AcDbScale
 70
     0
300
1/4" = 1'-0"
140
0.25
141
12.0
290
     0
  0
SCALE
  5
13C
102
{ACAD_REACTORS
330
B6
102
}
330
B6
100
AcDbScale
 70
     0
300
3/8" = 1'-0"
140
0.375
141
12.0
290
     0
  0
SCALE
  5
13D
102
{ACAD_REACTORS
330
B6
102
}
330
B6
100
AcDbScale
 70
     0
300
1/2" = 1'-0"
140
0.5
141
12.0
290
     0
  0
SCALE
  5
13E
102
{ACAD_REACTORS
330
B6
102
}
330
B6
100
AcDbScale
 70
     0
300
3/4" = 1'-0"
140
0.75
141
12.0
290
     0
  0
SCALE
  5
13F
102
{ACAD_REACTORS
330
B6
102
}
330
B6
100
AcDbScale
 70
     0
300
1" = 1'-0"
140
1.0
141
12.0
290
     0
  0
SCALE
  5
140
102
{ACAD_REACTORS
330
B6
102
}
330
B6
100
AcDbScale
 70
     0
300
1-1/2" = 1'-0"
140
1.5
141
12.0
290
     0
  0
SCALE
  5
141
102
{ACAD_REACTORS
330
B6
102
}
330
B6
100
AcDbScale
 70
     0
300
3" = 1'-0"
140
3.0
141
12.0
290
     0
  0
SCALE
  5
142
102
{ACAD_REACTORS
330
B6
102
}
330
B6
100
AcDbScale
 70
     0
300
6" = 1'-0"
140
6.0
141
12.0
290
     0
  0
SCALE
  5
143
102
{ACAD_REACTORS
330
B6
102
}
330
B6
100
AcDbScale
 70
     0
300
1'-0" = 1'-0"
140
12.0
141
12.0
290
     0
  0
ACDBSECTIONVIEWSTYLE
  5
1AA
102
{ACAD_REACTORS
330
1A8
102
}
330
1A8
100
AcDbModelDocViewStyle
 70
     0
  3
Imperial24
290
     0
300
Imperial24
 90
        0
100
AcDbSectionViewStyle
 70
     0
 71
     0
 90
       78
 71
     1
340
11
 62
   256
 40
0.24
340
0
340
0
 62
   256
 40
0.24
300
I, O, Q, S, X, Z
 40
0.48
 90
        3
 40
0.18
 90
        1
 71
     2
340
16
 90
       25
 62
   256
340
16
 90
       50
 62
   256
 40
0.24
 40
0.0
 40
0.24
 71
     3
340
11
 62
   256
 40
0.24
 90
        1
 40
0.75
 90
        1
300
%<\AcVar ViewType \f "%tc1">% %<\AcVar ViewSectionStartId>%-%<\AcVar ViewSectionEndId>%\PSCALE %<\AcVar ViewScale \f "%sn">%
 71
     4
 62
   256
 62
   257
300
ANSI31
 40
1.0
 90
        0
290
     0
290
     0
 90
        6
 40
0.0
 40
1.570796326794896
 40
0.2617993877991494
 40
1.308996938995747
 40
-0.2617993877991494
 40
1.832595714594045
  0
TABLESTYLE
  5
87
102
{ACAD_XDICTIONARY
360
104
102
}
102
{ACAD_REACTORS
330
86
102
}
330
86
100
AcDbTableStyle
280
     0
  3
Standard
 70
     0
 71
     0
 40
0.06
 41
0.06
280
     0
281
     0
  7
Standard
140
0.18
170
     2
 62
     0
 63
     7
283
     0
 90
      512
 91
        0
  1

274
    -2
284
     1
 64
     0
275
    -2
285
     1
 65
     0
276
    -2
286
     1
 66
     0
277
    -2
287
     1
 67
     0
278
    -2
288
     1
 68
     0
279
    -2
289
     1
 69
     0
  7
Standard
140
0.25
170
     5
 62
     0
 63
     7
283
     0
 90
      512
 91
        0
  1

274
    -2
284
     1
 64
     0
275
    -2
285
     1
 65
     0
276
    -2
286
     1
 66
     0
277
    -2
287
     1
 67
     0
278
    -2
288
     1
 68
     0
279
    -2
289
     1
 69
     0
  7
Standard
140
0.18
170
     5
 62
     0
 63
     7
283
     0
 90
      512
 91
        0
  1

274
    -2
284
     1
 64
     0
275
    -2
285
     1
 65
     0
276
    -2
286
     1
 66
     0
277
    -2
287
     1
 67
     0
278
    -2
288
     1
 68
     0
279
    -2
289
     1
 69
     0
  0
VISUALSTYLE
  5
9F
102
{ACAD_REACTORS
330
99
102
}
330
99
100
AcDbVisualStyle
  2
2dWireframe
 70
     4
177
     3
291
     0
 70
    58
 90
        0
176
     1
 90
        2
176
     1
 90
        1
176
     1
 90
        0
176
     1
 40
0.6
176
     1
 40
30.0
176
     1
 62
     7
420
 16777215
176
     1
 90
        1
176
     1
 90
        4
176
     1
 62
     7
176
     1
 62
   257
176
     1
 90
        1
176
     1
 90
        1
176
     1
 40
1.0
176
     1
 90
        0
176
     1
 62
   257
176
     1
 40
1.0
176
     1
 90
        1
176
     1
 90
        6
176
     1
 90
        2
176
     1
 62
     7
176
     1
 90
        5
176
     1
 90
        0
176
     1
 90
        0
176
     1
290
     0
176
     1
 90
        1
176
     1
 40
0.0
176
     1
 90
        0
176
     1
290
     1
176
     1
290
     1
176
     1
290
     0
176
     1
290
     0
176
     1
290
     0
176
     1
290
     0
176
     1
290
     0
176
     1
290
     0
176
     1
290
     0
176
     1
 90
       50
176
     1
 40
0.0
176
     1
 40
1.0
176
     1
 90
        0
176
     1
 62
    18
176
     1
 90
       50
176
     1
 90
        3
176
     1
 62
     5
420
      255
176
     1
290
     0
176
     1
 90
       50
176
     1
 90
       50
176
     1
 90
       50
176
     1
290
     0
176
     1
 90
       50
176
     1
 62
   256
176
     0
 40
1.0
176
     0
 90
        2
176
     1
  1
strokes_ogs.tif
176
     1
290
     0
176
     1
 40
1.0
176
     1
 40
1.0
176
     1
  0
VISUALSTYLE
  5
9E
102
{ACAD_REACTORS
330
99
102
}
330
99
100
AcDbVisualStyle
  2
Basic
 70
     7
177
     3
291
     1
 70
    58
 90
        1
176
     1
 90
        0
176
     1
 90
        1
176
     1
 90
        0
176
     1
 40
0.6
176
     1
 40
30.0
176
     1
 62
     7
420
 16777215
176
     1
 90
        0
176
     1
 90
        4
176
     1
 62
     7
176
     1
 62
   257
176
     1
 90
        1
176
     1
 90
        1
176
     1
 40
1.0
176
     1
 90
        8
176
     1
 62
     7
176
     1
 40
1.0
176
     1
 90
        1
176
     1
 90
        6
176
     1
 90
        2
176
     1
 62
     7
176
     1
 90
        5
176
     1
 90
        0
176
     1
 90
        0
176
     1
290
     0
176
     1
 90
        1
176
     1
 40
0.0
176
     1
 90
        0
176
     1
290
     0
176
     1
290
     1
176
     1
290
     1
176
     1
290
     0
176
     1
290
     0
176
     1
290
     0
176
     1
290
     0
176
     1
290
     0
176
     1
290
     0
176
     1
 90
       50
176
     1
 40
0.0
176
     1
 40
1.0
176
     1
 90
        0
176
     1
 62
    18
176
     1
 90
       50
176
     1
 90
        3
176
     1
 62
     5
420
      255
176
     1
290
     0
176
     1
 90
       50
176
     1
 90
       50
176
     1
 90
       50
176
     1
290
     0
176
     1
 90
       50
176
     1
 62
   256
176
     0
 40
1.0
176
     0
 90
        2
176
     1
  1
strokes_ogs.tif
176
     1
290
     0
176
     1
 40
1.0
176
     1
 40
1.0
176
     1
  0
VISUALSTYLE
  5
A5
102
{ACAD_REACTORS
330
99
102
}
330
99
100
AcDbVisualStyle
  2
Brighten
 70
    12
177
     3
291
     1
 70
    58
 90
        2
176
     1
 90
        2
176
     1
 90
        1
176
     1
 90
        0
176
     1
 40
0.6
176
     1
 40
30.0
176
     1
 62
     7
420
 16777215
176
     1
 90
        1
176
     1
 90
        4
176
     1
 62
     7
176
     1
 62
   257
176
     1
 90
        1
176
     1
 90
        1
176
     1
 40
1.0
176
     1
 90
        8
176
     1
 62
     7
176
     1
 40
1.0
176
     1
 90
        1
176
     1
 90
        6
176
     1
 90
        2
176
     1
 62
     7
176
     1
 90
        5
176
     1
 90
        0
176
     1
 90
        0
176
     1
290
     0
176
     1
 90
        1
176
     1
 40
50.0
176
     1
 90
        0
176
     1
290
     0
176
     1
290
     1
176
     1
290
     1
176
     1
290
     0
176
     1
290
     0
176
     1
290
     0
176
     1
290
     0
176
     1
290
     0
176
     1
290
     0
176
     1
 90
       50
176
     1
 40
0.0
176
     1
 40
1.0
176
     1
 90
        0
176
     1
 62
    18
176
     1
 90
       50
176
     1
 90
        3
176
     1
 62
     5
420
      255
176
     1
290
     0
176
     1
 90
       50
176
     1
 90
       50
176
     1
 90
       50
176
     1
290
     0
176
     1
 90
       50
176
     1
 62
   256
176
     0
 40
1.0
176
     0
 90
        2
176
     1
  1
strokes_ogs.tif
176
     1
290
     0
176
     1
 40
1.0
176
     1
 40
1.0
176
     1
  0
VISUALSTYLE
  5
A9
102
{ACAD_REACTORS
330
99
102
}
330
99
100
AcDbVisualStyle
  2
ColorChange
 70
    16
177
     3
291
     1
 70
    58
 90
        2
176
     1
 90
        2
176
     1
 90
        3
176
     1
 90
        0
176
     1
 40
0.6
176
     1
 40
30.0
176
     1
 62
     8
420
  8421504
176
     1
 90
        1
176
     1
 90
        4
176
     1
 62
     7
176
     1
 62
   257
176
     1
 90
        1
176
     1
 90
        1
176
     1
 40
1.0
176
     1
 90
        8
176
     1
 62
     8
420
  8421504
176
     1
 40
1.0
176
     1
 90
        1
176
     1
 90
        6
176
     1
 90
        2
176
     1
 62
     7
176
     1
 90
        5
176
     1
 90
        0
176
     1
 90
        0
176
     1
290
     0
176
     1
 90
        1
176
     1
 40
0.0
176
     1
 90
        0
176
     1
290
     0
176
     1
290
     1
176
     1
290
     1
176
     1
290
     0
176
     1
290
     0
176
     1
290
     0
176
     1
290
     0
176
     1
290
     0
176
     1
290
     0
176
     1
 90
       50
176
     1
 40
0.0
176
     1
 40
1.0
176
     1
 90
        0
176
     1
 62
    18
176
     1
 90
       50
176
     1
 90
        3
176
     1
 62
     5
420
      255
176
     1
290
     0
176
     1
 90
       50
176
     1
 90
       50
176
     1
 90
       50
176
     1
290
     0
176
     1
 90
       50
176
     1
 62
   256
176
     0
 40
1.0
176
     0
 90
        2
176
     1
  1
strokes_ogs.tif
176
     1
290
     0
176
     1
 40
1.0
176
     1
 40
1.0
176
     1
  0
VISUALSTYLE
  5
A2
102
{ACAD_REACTORS
330
99
102
}
330
99
100
AcDbVisualStyle
  2
Conceptual
 70
     9
177
     3
291
     0
 70
    58
 90
        3
176
     1
 90
        2
176
     1
 90
        1
176
     1
 90
        0
176
     1
 40
0.6
176
     1
 40
30.0
176
     1
 62
     7
420
 16777215
176
     1
 90
        2
176
     1
 90
        2
176
     1
 62
     7
176
     1
 62
   257
176
     1
 90
        1
176
     1
 90
        1
176
     1
 40
40.0
176
     1
 90
        8
176
     1
 62
     7
176
     1
 40
1.0
176
     1
 90
        1
176
     1
 90
        6
176
     1
 90
        2
176
     1
 62
     7
176
     1
 90
        3
176
     1
 90
        0
176
     1
 90
        0
176
     1
290
     0
176
     1
 90
        1
176
     1
 40
0.0
176
     1
 90
        0
176
     1
290
     0
176
     1
290
     1
176
     1
290
     1
176
     1
290
     0
176
     1
290
     0
176
     1
290
     0
176
     1
290
     0
176
     1
290
     0
176
     1
290
     0
176
     1
 90
       50
176
     1
 40
0.0
176
     1
 40
1.0
176
     1
 90
        0
176
     1
 62
    18
176
     1
 90
       50
176
     1
 90
        3
176
     1
 62
     5
420
      255
176
     1
290
     0
176
     1
 90
       50
176
     1
 90
       50
176
     1
 90
       50
176
     1
290
     0
176
     1
 90
       50
176
     1
 62
   256
176
     0
 40
1.0
176
     0
 90
        2
176
     1
  1
strokes_ogs.tif
176
     1
290
     0
176
     1
 40
1.0
176
     1
 40
1.0
176
     1
  0
VISUALSTYLE
  5
A4
102
{ACAD_REACTORS
330
99
102
}
330
99
100
AcDbVisualStyle
  2
Dim
 70
    11
177
     3
291
     1
 70
    58
 90
        2
176
     1
 90
        2
176
     1
 90
        1
176
     1
 90
        0
176
     1
 40
0.6
176
     1
 40
30.0
176
     1
 62
     7
420
 16777215
176
     1
 90
        1
176
     1
 90
        4
176
     1
 62
     7
176
     1
 62
   257
176
     1
 90
        1
176
     1
 90
        1
176
     1
 40
1.0
176
     1
 90
        8
176
     1
 62
     7
176
     1
 40
1.0
176
     1
 90
        1
176
     1
 90
        6
176
     1
 90
        2
176
     1
 62
     7
176
     1
 90
        5
176
     1
 90
        0
176
     1
 90
        0
176
     1
290
     0
176
     1
 90
        1
176
     1
 40
-50.0
176
     1
 90
        0
176
     1
290
     0
176
     1
290
     1
176
     1
290
     1
176
     1
290
     0
176
     1
290
     0
176
     1
290
     0
176
     1
290
     0
176
     1
290
     0
176
     1
290
     0
176
     1
 90
       50
176
     1
 40
0.0
176
     1
 40
1.0
176
     1
 90
        0
176
     1
 62
    18
176
     1
 90
       50
176
     1
 90
        3
176
     1
 62
     5
420
      255
176
     1
290
     0
176
     1
 90
       50
176
     1
 90
       50
176
     1
 90
       50
176
     1
290
     0
176
     1
 90
       50
176
     1
 62
   256
176
     0
 40
1.0
176
     0
 90
        2
176
     1
  1
strokes_ogs.tif
176
     1
290
     0
176
     1
 40
1.0
176
     1
 40
1.0
176
     1
  0
VISUALSTYLE
  5
175
102
{ACAD_REACTORS
330
99
102
}
330
99
100
AcDbVisualStyle
  2
EdgeColorOff
 70
    22
177
     3
291
     1
 70
    58
 90
        2
176
     0
 90
        2
176
     0
 90
        0
176
     0
 90
        0
176
     0
 40
0.6
176
     0
 40
30.0
176
     0
 62
     7
420
 16777215
176
     0
 90
        1
176
     0
 90
        4
176
     0
 62
     7
176
     0
 62
   257
176
     0
 90
        1
176
     0
 90
        1
176
     0
 40
1.0
176
     0
 90
        8
176
     2
 62
     7
176
     0
 40
1.0
176
     0
 90
        1
176
     0
 90
        6
176
     0
 90
        2
176
     0
 62
     7
176
     0
 90
        5
176
     0
 90
        0
176
     0
 90
        0
176
     0
290
     0
176
     0
 90
        1
176
     0
 40
0.0
176
     0
 90
        0
176
     0
290
     0
176
     1
290
     1
176
     1
290
     1
176
     1
290
     0
176
     1
290
     0
176
     1
290
     0
176
     1
290
     0
176
     1
290
     0
176
     1
290
     0
176
     1
 90
       50
176
     1
 40
0.0
176
     1
 40
1.0
176
     1
 90
        0
176
     1
 62
    18
176
     1
 90
       50
176
     1
 90
        3
176
     1
 62
     5
420
      255
176
     1
290
     0
176
     1
 90
       50
176
     1
 90
       50
176
     1
 90
       50
176
     1
290
     0
176
     1
 90
       50
176
     1
 62
   256
176
     0
 40
1.0
176
     0
 90
        2
176
     1
  1
strokes_ogs.tif
176
     1
290
     0
176
     1
 40
1.0
176
     1
 40
1.0
176
     1
  0
VISUALSTYLE
  5
A8
102
{ACAD_REACTORS
330
99
102
}
330
99
100
AcDbVisualStyle
  2
Facepattern
 70
    15
177
     3
291
     1
 70
    58
 90
        2
176
     1
 90
        2
176
     1
 90
        1
176
     1
 90
        0
176
     1
 40
0.6
176
     1
 40
30.0
176
     1
 62
     7
420
 16777215
176
     1
 90
        1
176
     1
 90
        4
176
     1
 62
     7
176
     1
 62
   257
176
     1
 90
        1
176
     1
 90
        1
176
     1
 40
1.0
176
     1
 90
        8
176
     1
 62
     7
176
     1
 40
1.0
176
     1
 90
        1
176
     1
 90
        6
176
     1
 90
        2
176
     1
 62
     7
176
     1
 90
        5
176
     1
 90
        0
176
     1
 90
        0
176
     1
290
     0
176
     1
 90
        1
176
     1
 40
0.0
176
     1
 90
        0
176
     1
290
     0
176
     1
290
     1
176
     1
290
     1
176
     1
290
     0
176
     1
290
     0
176
     1
290
     0
176
     1
290
     0
176
     1
290
     0
176
     1
290
     0
176
     1
 90
       50
176
     1
 40
0.0
176
     1
 40
1.0
176
     1
 90
        0
176
     1
 62
    18
176
     1
 90
       50
176
     1
 90
        3
176
     1
 62
     5
420
      255
176
     1
290
     0
176
     1
 90
       50
176
     1
 90
       50
176
     1
 90
       50
176
     1
290
     0
176
     1
 90
       50
176
     1
 62
   256
176
     0
 40
1.0
176
     0
 90
        2
176
     1
  1
strokes_ogs.tif
176
     1
290
     0
176
     1
 40
1.0
176
     1
 40
1.0
176
     1
  0
VISUALSTYLE
  5
9A
102
{ACAD_REACTORS
330
99
102
}
330
99
100
AcDbVisualStyle
  2
Flat
 70
     0
177
     3
291
     1
 70
    58
 90
        2
176
     1
 90
        1
176
     1
 90
        1
176
     1
 90
        2
176
     1
 40
0.6
176
     1
 40
30.0
176
     1
 62
     7
420
 16777215
176
     1
 90
        0
176
     1
 90
        0
176
     1
 62
     7
176
     1
 62
   257
176
     1
 90
        1
176
     1
 90
        1
176
     1
 40
1.0
176
     1
 90
        8
176
     1
 62
     7
176
     1
 40
1.0
176
     1
 90
        1
176
     1
 90
        6
176
     1
 90
        2
176
     1
 62
     7
176
     1
 90
        5
176
     1
 90
        0
176
     1
 90
        0
176
     1
290
     0
176
     1
 90
       13
176
     1
 40
0.0
176
     1
 90
        0
176
     1
290
     0
176
     1
290
     1
176
     1
290
     1
176
     1
290
     0
176
     1
290
     0
176
     1
290
     0
176
     1
290
     0
176
     1
290
     0
176
     1
290
     0
176
     1
 90
       50
176
     1
 40
0.0
176
     1
 40
1.0
176
     1
 90
        0
176
     1
 62
    18
176
     1
 90
       50
176
     1
 90
        3
176
     1
 62
     5
420
      255
176
     1
290
     0
176
     1
 90
       50
176
     1
 90
       50
176
     1
 90
       50
176
     1
290
     0
176
     1
 90
       50
176
     1
 62
   256
176
     0
 40
1.0
176
     0
 90
        2
176
     1
  1
strokes_ogs.tif
176
     1
290
     0
176
     1
 40
1.0
176
     1
 40
1.0
176
     1
  0
VISUALSTYLE
  5
9B
102
{ACAD_REACTORS
330
99
102
}
330
99
100
AcDbVisualStyle
  2
FlatWithEdges
 70
     1
177
     3
291
     1
 70
    58
 90
        2
176
     1
 90
        1
176
     1
 90
        1
176
     1
 90
        2
176
     1
 40
0.6
176
     1
 40
30.0
176
     1
 62
     7
420
 16777215
176
     1
 90
        1
176
     1
 90
        0
176
     1
 62
     7
176
     1
 62
   257
176
     1
 90
        1
176
     1
 90
        1
176
     1
 40
1.0
176
     1
 90
        0
176
     1
 62
   257
176
     1
 40
1.0
176
     1
 90
        1
176
     1
 90
        6
176
     1
 90
        2
176
     1
 62
     7
176
     1
 90
        5
176
     1
 90
        0
176
     1
 90
        0
176
     1
290
     0
176
     1
 90
       13
176
     1
 40
0.0
176
     1
 90
        0
176
     1
290
     0
176
     1
290
     1
176
     1
290
     1
176
     1
290
     0
176
     1
290
     0
176
     1
290
     0
176
     1
290
     0
176
     1
290
     0
176
     1
290
     0
176
     1
 90
       50
176
     1
 40
0.0
176
     1
 40
1.0
176
     1
 90
        0
176
     1
 62
    18
176
     1
 90
       50
176
     1
 90
        3
176
     1
 62
     5
420
      255
176
     1
290
     0
176
     1
 90
       50
176
     1
 90
       50
176
     1
 90
       50
176
     1
290
     0
176
     1
 90
       50
176
     1
 62
   256
176
     0
 40
1.0
176
     0
 90
        2
176
     1
  1
strokes_ogs.tif
176
     1
290
     0
176
     1
 40
1.0
176
     1
 40
1.0
176
     1
  0
VISUALSTYLE
  5
9C
102
{ACAD_REACTORS
330
99
102
}
330
99
100
AcDbVisualStyle
  2
Gouraud
 70
     2
177
     3
291
     1
 70
    58
 90
        2
176
     1
 90
        2
176
     1
 90
        1
176
     1
 90
        2
176
     1
 40
0.6
176
     1
 40
30.0
176
     1
 62
     7
420
 16777215
176
     1
 90
        0
176
     1
 90
        0
176
     1
 62
     7
176
     1
 62
   257
176
     1
 90
        1
176
     1
 90
        1
176
     1
 40
1.0
176
     1
 90
        0
176
     1
 62
     7
176
     1
 40
1.0
176
     1
 90
        1
176
     1
 90
        6
176
     1
 90
        2
176
     1
 62
     7
176
     1
 90
        5
176
     1
 90
        0
176
     1
 90
        0
176
     1
290
     0
176
     1
 90
       13
176
     1
 40
0.0
176
     1
 90
        0
176
     1
290
     0
176
     1
290
     1
176
     1
290
     1
176
     1
290
     0
176
     1
290
     0
176
     1
290
     0
176
     1
290
     0
176
     1
290
     0
176
     1
290
     0
176
     1
 90
       50
176
     1
 40
0.0
176
     1
 40
1.0
176
     1
 90
        0
176
     1
 62
    18
176
     1
 90
       50
176
     1
 90
        3
176
     1
 62
     5
420
      255
176
     1
290
     0
176
     1
 90
       50
176
     1
 90
       50
176
     1
 90
       50
176
     1
290
     0
176
     1
 90
       50
176
     1
 62
   256
176
     0
 40
1.0
176
     0
 90
        2
176
     1
  1
strokes_ogs.tif
176
     1
290
     0
176
     1
 40
1.0
176
     1
 40
1.0
176
     1
  0
VISUALSTYLE
  5
9D
102
{ACAD_REACTORS
330
99
102
}
330
99
100
AcDbVisualStyle
  2
GouraudWithEdges
 70
     3
177
     3
291
     1
 70
    58
 90
        2
176
     1
 90
        2
176
     1
 90
        1
176
     1
 90
        2
176
     1
 40
0.6
176
     1
 40
30.0
176
     1
 62
     7
420
 16777215
176
     1
 90
        1
176
     1
 90
        0
176
     1
 62
     7
176
     1
 62
   257
176
     1
 90
        1
176
     1
 90
        1
176
     1
 40
1.0
176
     1
 90
        0
176
     1
 62
   257
176
     1
 40
1.0
176
     1
 90
        1
176
     1
 90
        6
176
     1
 90
        2
176
     1
 62
     7
176
     1
 90
        5
176
     1
 90
        0
176
     1
 90
        0
176
     1
290
     0
176
     1
 90
       13
176
     1
 40
0.0
176
     1
 90
        0
176
     1
290
     0
176
     1
290
     1
176
     1
290
     1
176
     1
290
     0
176
     1
290
     0
176
     1
290
     0
176
     1
290
     0
176
     1
290
     0
176
     1
290
     0
176
     1
 90
       50
176
     1
 40
0.0
176
     1
 40
1.0
176
     1
 90
        0
176
     1
 62
    18
176
     1
 90
       50
176
     1
 90
        3
176
     1
 62
     5
420
      255
176
     1
290
     0
176
     1
 90
       50
176
     1
 90
       50
176
     1
 90
       50
176
     1
290
     0
176
     1
 90
       50
176
     1
 62
   256
176
     0
 40
1.0
176
     0
 90
        2
176
     1
  1
strokes_ogs.tif
176
     1
290
     0
176
     1
 40
1.0
176
     1
 40
1.0
176
     1
  0
VISUALSTYLE
  5
A1
102
{ACAD_REACTORS
330
99
102
}
330
99
100
AcDbVisualStyle
  2
Hidden
 70
     6
177
     3
291
     0
 70
    58
 90
        1
176
     1
 90
        2
176
     1
 90
        2
176
     1
 90
        0
176
     1
 40
0.6
176
     1
 40
30.0
176
     1
 62
     7
420
 16777215
176
     1
 90
        2
176
     1
 90
        2
176
     1
 62
     7
176
     1
 62
   257
176
     1
 90
        2
176
     1
 90
        1
176
     1
 40
40.0
176
     1
 90
        0
176
     1
 62
   257
176
     1
 40
1.0
176
     1
 90
        1
176
     1
 90
        6
176
     1
 90
        2
176
     1
 62
     7
176
     1
 90
        3
176
     1
 90
        0
176
     1
 90
        0
176
     1
290
     0
176
     1
 90
        1
176
     1
 40
0.0
176
     1
 90
        0
176
     1
290
     0
176
     1
290
     1
176
     1
290
     1
176
     1
290
     0
176
     1
290
     0
176
     1
290
     0
176
     1
290
     0
176
     1
290
     0
176
     1
290
     0
176
     1
 90
       50
176
     1
 40
0.0
176
     1
 40
1.0
176
     1
 90
        0
176
     1
 62
    18
176
     1
 90
       50
176
     1
 90
        3
176
     1
 62
     5
420
      255
176
     1
290
     0
176
     1
 90
       50
176
     1
 90
       50
176
     1
 90
       50
176
     1
290
     0
176
     1
 90
       50
176
     1
 62
   256
176
     0
 40
1.0
176
     0
 90
        2
176
     1
  1
strokes_ogs.tif
176
     1
290
     0
176
     1
 40
1.0
176
     1
 40
1.0
176
     1
  0
VISUALSTYLE
  5
173
102
{ACAD_REACTORS
330
99
102
}
330
99
100
AcDbVisualStyle
  2
JitterOff
 70
    20
177
     3
291
     1
 70
    58
 90
        2
176
     0
 90
        2
176
     0
 90
        0
176
     0
 90
        0
176
     0
 40
0.6
176
     0
 40
30.0
176
     0
 62
     7
420
 16777215
176
     0
 90
        1
176
     0
 90
        4
176
     0
 62
     7
176
     0
 62
   257
176
     0
 90
        1
176
     0
 90
        1
176
     0
 40
1.0
176
     0
 90
       10
176
     2
 62
     7
176
     0
 40
1.0
176
     0
 90
        1
176
     0
 90
        6
176
     0
 90
        2
176
     0
 62
     7
176
     0
 90
        5
176
     0
 90
        0
176
     0
 90
        0
176
     0
290
     0
176
     0
 90
        1
176
     0
 40
0.0
176
     0
 90
        0
176
     0
290
     0
176
     1
290
     1
176
     1
290
     1
176
     1
290
     0
176
     1
290
     0
176
     1
290
     0
176
     1
290
     0
176
     1
290
     0
176
     1
290
     0
176
     1
 90
       50
176
     1
 40
0.0
176
     1
 40
1.0
176
     1
 90
        0
176
     1
 62
    18
176
     1
 90
       50
176
     1
 90
        3
176
     1
 62
     5
420
      255
176
     1
290
     0
176
     1
 90
       50
176
     1
 90
       50
176
     1
 90
       50
176
     1
290
     0
176
     1
 90
       50
176
     1
 62
   256
176
     0
 40
1.0
176
     0
 90
        2
176
     1
  1
strokes_ogs.tif
176
     1
290
     0
176
     1
 40
1.0
176
     1
 40
1.0
176
     1
  0
VISUALSTYLE
  5
A7
102
{ACAD_REACTORS
330
99
102
}
330
99
100
AcDbVisualStyle
  2
Linepattern
 70
    14
177
     3
291
     1
 70
    58
 90
        2
176
     1
 90
        2
176
     1
 90
        1
176
     1
 90
        0
176
     1
 40
0.6
176
     1
 40
30.0
176
     1
 62
     7
420
 16777215
176
     1
 90
        1
176
     1
 90
        4
176
     1
 62
     7
176
     1
 62
   257
176
     1
 90
        7
176
     1
 90
        7
176
     1
 40
1.0
176
     1
 90
        8
176
     1
 62
     7
176
     1
 40
1.0
176
     1
 90
        1
176
     1
 90
        6
176
     1
 90
        2
176
     1
 62
     7
176
     1
 90
        5
176
     1
 90
        0
176
     1
 90
        0
176
     1
290
     0
176
     1
 90
        1
176
     1
 40
0.0
176
     1
 90
        0
176
     1
290
     0
176
     1
290
     1
176
     1
290
     1
176
     1
290
     0
176
     1
290
     0
176
     1
290
     0
176
     1
290
     0
176
     1
290
     0
176
     1
290
     0
176
     1
 90
       50
176
     1
 40
0.0
176
     1
 40
1.0
176
     1
 90
        0
176
     1
 62
    18
176
     1
 90
       50
176
     1
 90
        3
176
     1
 62
     5
420
      255
176
     1
290
     0
176
     1
 90
       50
176
     1
 90
       50
176
     1
 90
       50
176
     1
290
     0
176
     1
 90
       50
176
     1
 62
   256
176
     0
 40
1.0
176
     0
 90
        2
176
     1
  1
strokes_ogs.tif
176
     1
290
     0
176
     1
 40
1.0
176
     1
 40
1.0
176
     1
  0
VISUALSTYLE
  5
174
102
{ACAD_REACTORS
330
99
102
}
330
99
100
AcDbVisualStyle
  2
OverhangOff
 70
    21
177
     3
291
     1
 70
    58
 90
        2
176
     0
 90
        2
176
     0
 90
        0
176
     0
 90
        0
176
     0
 40
0.6
176
     0
 40
30.0
176
     0
 62
     7
420
 16777215
176
     0
 90
        1
176
     0
 90
        4
176
     0
 62
     7
176
     0
 62
   257
176
     0
 90
        1
176
     0
 90
        1
176
     0
 40
1.0
176
     0
 90
        9
176
     2
 62
     7
176
     0
 40
1.0
176
     0
 90
        1
176
     0
 90
        6
176
     0
 90
        2
176
     0
 62
     7
176
     0
 90
        5
176
     0
 90
        0
176
     0
 90
        0
176
     0
290
     0
176
     0
 90
        1
176
     0
 40
0.0
176
     0
 90
        0
176
     0
290
     0
176
     1
290
     1
176
     1
290
     1
176
     1
290
     0
176
     1
290
     0
176
     1
290
     0
176
     1
290
     0
176
     1
290
     0
176
     1
290
     0
176
     1
 90
       50
176
     1
 40
0.0
176
     1
 40
1.0
176
     1
 90
        0
176
     1
 62
    18
176
     1
 90
       50
176
     1
 90
        3
176
     1
 62
     5
420
      255
176
     1
290
     0
176
     1
 90
       50
176
     1
 90
       50
176
     1
 90
       50
176
     1
290
     0
176
     1
 90
       50
176
     1
 62
   256
176
     0
 40
1.0
176
     0
 90
        2
176
     1
  1
strokes_ogs.tif
176
     1
290
     0
176
     1
 40
1.0
176
     1
 40
1.0
176
     1
  0
VISUALSTYLE
  5
A3
102
{ACAD_REACTORS
330
99
102
}
330
99
100
AcDbVisualStyle
  2
Realistic
 70
     8
177
     3
291
     0
 70
    58
 90
        2
176
     1
 90
        3
176
     1
 90
        0
176
     1
 90
        2
176
     1
 40
0.6
176
     1
 40
30.0
176
     1
 62
     7
420
 16777215
176
     1
 90
        0
176
     1
 90
        0
176
     1
 62
     7
176
     1
 62
   257
176
     1
 90
        1
176
     1
 90
        1
176
     1
 40
1.0
176
     1
 90
        8
176
     1
 62
   257
176
     1
 40
1.0
176
     1
 90
        1
176
     1
 90
        6
176
     1
 90
        2
176
     1
 62
     7
176
     1
 90
        3
176
     1
 90
        0
176
     1
 90
        0
176
     1
290
     0
176
     1
 90
       13
176
     1
 40
0.0
176
     1
 90
        0
176
     1
290
     0
176
     1
290
     1
176
     1
290
     1
176
     1
290
     0
176
     1
290
     0
176
     1
290
     0
176
     1
290
     0
176
     1
290
     0
176
     1
290
     0
176
     1
 90
       50
176
     1
 40
0.0
176
     1
 40
1.0
176
     1
 90
        0
176
     1
 62
    18
176
     1
 90
       50
176
     1
 90
        3
176
     1
 62
     5
420
      255
176
     1
290
     0
176
     1
 90
       50
176
     1
 90
       50
176
     1
 90
       50
176
     1
290
     0
176
     1
 90
       50
176
     1
 62
   256
176
     0
 40
1.0
176
     0
 90
        2
176
     1
  1
strokes_ogs.tif
176
     1
290
     0
176
     1
 40
1.0
176
     1
 40
1.0
176
     1
  0
VISUALSTYLE
  5
182
102
{ACAD_REACTORS
330
99
102
}
330
99
100
AcDbVisualStyle
  2
Shaded
 70
    27
177
     3
291
     0
 70
    58
 90
        2
176
     1
 90
        2
176
     1
 90
        1
176
     1
 90
        2
176
     1
 40
0.6
176
     1
 40
30.0
176
     1
 62
     7
420
 16777215
176
     1
 90
        0
176
     1
 90
        4
176
     1
 62
     7
176
     1
 62
   257
176
     1
 90
        1
176
     1
 90
        1
176
     1
 40
1.0
176
     1
 90
        8
176
     1
 62
   257
176
     1
 40
1.0
176
     1
 90
        1
176
     1
 90
        6
176
     1
 90
        2
176
     1
 62
     8
420
  7895160
176
     1
 90
        3
176
     1
 90
        0
176
     1
 90
        0
176
     1
290
     0
176
     1
 90
        5
176
     1
 40
0.0
176
     1
 90
        0
176
     1
290
     0
176
     1
290
     1
176
     1
290
     1
176
     1
290
     0
176
     1
290
     0
176
     1
290
     0
176
     1
290
     0
176
     1
290
     0
176
     1
290
     0
176
     1
 90
       50
176
     1
 40
0.0
176
     1
 40
1.0
176
     1
 90
        0
176
     1
 62
    18
176
     1
 90
       50
176
     1
 90
        3
176
     1
 62
     5
420
      255
176
     1
290
     0
176
     1
 90
       50
176
     1
 90
       50
176
     1
 90
       50
176
     1
290
     0
176
     1
 90
       50
176
     1
 62
   256
176
     0
 40
1.0
176
     0
 90
        2
176
     1
  1
strokes_ogs.tif
176
     1
290
     0
176
     1
 40
1.0
176
     1
 40
1.0
176
     1
  0
VISUALSTYLE
  5
181
102
{ACAD_REACTORS
330
99
102
}
330
99
100
AcDbVisualStyle
  2
Shaded with edges
 70
    26
177
     3
291
     0
 70
    58
 90
        2
176
     1
 90
        2
176
     1
 90
        1
176
     1
 90
        2
176
     1
 40
0.6
176
     1
 40
30.0
176
     1
 62
     7
420
 16777215
176
     1
 90
        1
176
     1
 90
        2
176
     1
 62
     7
176
     1
 62
   257
176
     1
 90
        2
176
     1
 90
        1
176
     1
 40
1.0
176
     1
 90
        8
176
     1
 62
   257
176
     1
 40
1.0
176
     1
 90
        1
176
     1
 90
        6
176
     1
 90
        2
176
     1
 62
     7
176
     1
 90
        3
176
     1
 90
        0
176
     1
 90
        0
176
     1
290
     0
176
     1
 90
        5
176
     1
 40
0.0
176
     1
 90
        0
176
     1
290
     0
176
     1
290
     1
176
     1
290
     1
176
     1
290
     0
176
     1
290
     0
176
     1
290
     0
176
     1
290
     0
176
     1
290
     0
176
     1
290
     0
176
     1
 90
       50
176
     1
 40
0.0
176
     1
 40
1.0
176
     1
 90
        0
176
     1
 62
    18
176
     1
 90
       50
176
     1
 90
        3
176
     1
 62
     5
420
      255
176
     1
290
     0
176
     1
 90
       50
176
     1
 90
       50
176
     1
 90
       50
176
     1
290
     0
176
     1
 90
       50
176
     1
 62
   256
176
     0
 40
1.0
176
     0
 90
        2
176
     1
  1
strokes_ogs.tif
176
     1
290
     0
176
     1
 40
1.0
176
     1
 40
1.0
176
     1
  0
VISUALSTYLE
  5
17E
102
{ACAD_REACTORS
330
99
102
}
330
99
100
AcDbVisualStyle
  2
Shades of Gray
 70
    23
177
     3
291
     0
 70
    58
 90
        2
176
     1
 90
        2
176
     1
 90
        3
176
     1
 90
        0
176
     1
 40
0.6
176
     1
 40
30.0
176
     1
 62
     7
420
 16777215
176
     1
 90
        2
176
     1
 90
        2
176
     1
 62
     7
176
     1
 62
     7
176
     1
 90
        1
176
     1
 90
        1
176
     1
 40
40.0
176
     1
 90
        8
176
     1
 62
     7
176
     1
 40
1.0
176
     1
 90
        1
176
     1
 90
        6
176
     1
 90
        2
176
     1
 62
     7
176
     1
 90
        3
176
     1
 90
        0
176
     1
 90
        0
176
     1
290
     0
176
     1
 90
        1
176
     1
 40
0.0
176
     1
 90
        0
176
     1
290
     0
176
     1
290
     1
176
     1
290
     1
176
     1
290
     0
176
     1
290
     0
176
     1
290
     0
176
     1
290
     0
176
     1
290
     0
176
     1
290
     0
176
     1
 90
       50
176
     1
 40
0.0
176
     1
 40
1.0
176
     1
 90
        0
176
     1
 62
    18
176
     1
 90
       50
176
     1
 90
        3
176
     1
 62
     5
420
      255
176
     1
290
     0
176
     1
 90
       50
176
     1
 90
       50
176
     1
 90
       50
176
     1
290
     0
176
     1
 90
       50
176
     1
 62
   256
176
     0
 40
1.0
176
     0
 90
        2
176
     1
  1
strokes_ogs.tif
176
     1
290
     0
176
     1
 40
1.0
176
     1
 40
1.0
176
     1
  0
VISUALSTYLE
  5
17F
102
{ACAD_REACTORS
330
99
102
}
330
99
100
AcDbVisualStyle
  2
Sketchy
 70
    24
177
     3
291
     0
 70
    58
 90
        1
176
     1
 90
        2
176
     1
 90
        2
176
     1
 90
        0
176
     1
 40
0.6
176
     1
 40
30.0
176
     1
 62
     7
420
 16777215
176
     1
 90
        2
176
     1
 90
        2
176
     1
 62
     7
176
     1
 62
     7
176
     1
 90
        1
176
     1
 90
        1
176
     1
 40
40.0
176
     1
 90
       11
176
     1
 62
     7
176
     1
 40
1.0
176
     1
 90
        1
176
     1
 90
        6
176
     1
 90
        2
176
     1
 62
     7
176
     1
 90
        6
176
     1
 90
        0
176
     1
 90
        0
176
     1
290
     0
176
     1
 90
        1
176
     1
 40
0.0
176
     1
 90
        0
176
     1
290
     0
176
     1
290
     1
176
     1
290
     1
176
     1
290
     0
176
     1
290
     0
176
     1
290
     0
176
     1
290
     0
176
     1
290
     0
176
     1
290
     0
176
     1
 90
       50
176
     1
 40
0.0
176
     1
 40
1.0
176
     1
 90
        0
176
     1
 62
    18
176
     1
 90
       50
176
     1
 90
        3
176
     1
 62
     5
420
      255
176
     1
290
     0
176
     1
 90
       50
176
     1
 90
       50
176
     1
 90
       50
176
     1
290
     0
176
     1
 90
       50
176
     1
 62
   256
176
     0
 40
1.0
176
     0
 90
        2
176
     1
  1
strokes_ogs.tif
176
     1
290
     0
176
     1
 40
1.0
176
     1
 40
1.0
176
     1
  0
VISUALSTYLE
  5
A6
102
{ACAD_REACTORS
330
99
102
}
330
99
100
AcDbVisualStyle
  2
Thicken
 70
    13
177
     3
291
     1
 70
    58
 90
        2
176
     1
 90
        2
176
     1
 90
        1
176
     1
 90
        0
176
     1
 40
0.6
176
     1
 40
30.0
176
     1
 62
     7
420
 16777215
176
     1
 90
        1
176
     1
 90
        4
176
     1
 62
     7
176
     1
 62
   257
176
     1
 90
        1
176
     1
 90
        1
176
     1
 40
1.0
176
     1
 90
       12
176
     1
 62
     7
176
     1
 40
1.0
176
     1
 90
        1
176
     1
 90
        6
176
     1
 90
        2
176
     1
 62
     7
176
     1
 90
        5
176
     1
 90
        0
176
     1
 90
        0
176
     1
290
     0
176
     1
 90
        1
176
     1
 40
0.0
176
     1
 90
        0
176
     1
290
     0
176
     1
290
     1
176
     1
290
     1
176
     1
290
     0
176
     1
290
     0
176
     1
290
     0
176
     1
290
     0
176
     1
290
     0
176
     1
290
     0
176
     1
 90
       50
176
     1
 40
0.0
176
     1
 40
1.0
176
     1
 90
        0
176
     1
 62
    18
176
     1
 90
       50
176
     1
 90
        3
176
     1
 62
     5
420
      255
176
     1
290
     0
176
     1
 90
       50
176
     1
 90
       50
176
     1
 90
       50
176
     1
290
     0
176
     1
 90
       50
176
     1
 62
   256
176
     0
 40
1.0
176
     0
 90
        2
176
     1
  1
strokes_ogs.tif
176
     1
290
     0
176
     1
 40
1.0
176
     1
 40
1.0
176
     1
  0
VISUALSTYLE
  5
A0
102
{ACAD_REACTORS
330
99
102
}
330
99
100
AcDbVisualStyle
  2
Wireframe
 70
     5
177
     3
291
     0
 70
    58
 90
        0
176
     1
 90
        2
176
     1
 90
        0
176
     1
 90
        0
176
     1
 40
0.6
176
     1
 40
30.0
176
     1
 62
     7
420
 16777215
176
     1
 90
        1
176
     1
 90
        4
176
     1
 62
     7
176
     1
 62
   257
176
     1
 90
        1
176
     1
 90
        1
176
     1
 40
1.0
176
     1
 90
        0
176
     1
 62
   257
176
     1
 40
1.0
176
     1
 90
        1
176
     1
 90
        6
176
     1
 90
        2
176
     1
 62
     7
176
     1
 90
        3
176
     1
 90
        0
176
     1
 90
        0
176
     1
290
     0
176
     1
 90
        1
176
     1
 40
0.0
176
     1
 90
        0
176
     1
290
     0
176
     1
290
     1
176
     1
290
     1
176
     1
290
     0
176
     1
290
     0
176
     1
290
     0
176
     1
290
     0
176
     1
290
     0
176
     1
290
     0
176
     1
 90
       50
176
     1
 40
0.0
176
     1
 40
1.0
176
     1
 90
        0
176
     1
 62
    18
176
     1
 90
       50
176
     1
 90
        3
176
     1
 62
     5
420
      255
176
     1
290
     0
176
     1
 90
       50
176
     1
 90
       50
176
     1
 90
       50
176
     1
290
     0
176
     1
 90
       50
176
     1
 62
   256
176
     0
 40
1.0
176
     0
 90
        2
176
     1
  1
strokes_ogs.tif
176
     1
290
     0
176
     1
 40
1.0
176
     1
 40
1.0
176
     1
  0
VISUALSTYLE
  5
180
102
{ACAD_REACTORS
330
99
102
}
330
99
100
AcDbVisualStyle
  2
X-Ray
 70
    25
177
     3
291
     0
 70
    58
 90
        2
176
     1
 90
        2
176
     1
 90
        1
176
     1
 90
        1
176
     1
 40
0.5
176
     1
 40
30.0
176
     1
 62
     7
420
 16777215
176
     1
 90
        1
176
     1
 90
        0
176
     1
 62
     7
176
     1
 62
   257
176
     1
 90
        1
176
     1
 90
        1
176
     1
 40
1.0
176
     1
 90
        8
176
     1
 62
     7
176
     1
 40
1.0
176
     1
 90
        1
176
     1
 90
        6
176
     1
 90
        2
176
     1
 62
     7
176
     1
 90
        3
176
     1
 90
        0
176
     1
 90
        0
176
     1
290
     0
176
     1
 90
       13
176
     1
 40
0.0
176
     1
 90
        0
176
     1
290
     0
176
     1
290
     1
176
     1
290
     1
176
     1
290
     0
176
     1
290
     0
176
     1
290
     0
176
     1
290
     0
176
     1
290
     0
176
     1
290
     0
176
     1
 90
       50
176
     1
 40
0.0
176
     1
 40
1.0
176
     1
 90
        0
176
     1
 62
    18
176
     1
 90
       50
176
     1
 90
        3
176
     1
 62
     5
420
      255
176
     1
290
     0
176
     1
 90
       50
176
     1
 90
       50
176
     1
 90
       50
176
     1
290
     0
176
     1
 90
       50
176
     1
 62
   256
176
     0
 40
1.0
176
     0
 90
        2
176
     1
  1
strokes_ogs.tif
176
     1
290
     0
176
     1
 40
1.0
176
     1
 40
1.0
176
     1
  0
DICTIONARYVAR
  5
F0
102
{ACAD_REACTORS
330
66
102
}
330
66
100
DictionaryVariables
280
     0
  1
1:1
  0
DICTIONARYVAR
  5
EF
102
{ACAD_REACTORS
330
66
102
}
330
66
100
DictionaryVariables
280
     0
  1
Bing_1
  0
DICTIONARYVAR
  5
89
102
{ACAD_REACTORS
330
66
102
}
330
66
100
DictionaryVariables
280
     0
  1
STANDARD
  0
DICTIONARYVAR
  5
1B7
102
{ACAD_REACTORS
330
66
102
}
330
66
100
DictionaryVariables
280
     0
  1
Imperial24
  0
DICTIONARYVAR
  5
1B8
102
{ACAD_REACTORS
330
66
102
}
330
66
100
DictionaryVariables
280
     0
  1
Imperial24
  0
DICTIONARYVAR
  5
67
102
{ACAD_REACTORS
330
66
102
}
330
66
100
DictionaryVariables
280
     0
  1
2
  0
DICTIONARYVAR
  5
6B
102
{ACAD_REACTORS
330
66
102
}
330
66
100
DictionaryVariables
280
     0
  1
1
  0
DICTIONARYVAR
  5
10B1
102
{ACAD_REACTORS
330
66
102
}
330
66
100
DictionaryVariables
280
     0
  1
132
  0
DICTIONARYVAR
  5
10B0
102
{ACAD_REACTORS
330
66
102
}
330
66
100
DictionaryVariables
280
     0
  1
ByLayer
  0
DICTIONARYVAR
  5
14D
102
{ACAD_REACTORS
330
66
102
}
330
66
100
DictionaryVariables
280
     0
  1
0
  0
DICTIONARYVAR
  5
14E
102
{ACAD_REACTORS
330
66
102
}
330
66
100
DictionaryVariables
280
     0
  1
0
  0
DICTIONARY
  5
194
330
22
100
AcDbDictionary
280
     1
281
     1
  0
DICTIONARY
  5
188
330
97
100
AcDbDictionary
280
     1
281
     1
  3
FBXASSET
360
189
  0
DICTIONARY
  5
186
330
96
100
AcDbDictionary
280
     1
281
     1
  3
FBXASSET
360
187
  0
DICTIONARY
  5
110
330
98
100
AcDbDictionary
280
     1
281
     1
  3
BUMPTILE
360
112
  3
DIFFUSETILE
360
111
  3
FBXASSET
360
18A
  3
OPACITYTILE
360
113
  3
REFLECTIONTILE
360
114
  0
DICTIONARY
  5
104
330
87
100
AcDbDictionary
280
     1
281
     1
  3
ACAD_ROUNDTRIP_2008_TABLESTYLE_CELLSTYLEMAP
360
187C
  0
XRECORD
  5
189
102
{ACAD_REACTORS
330
188
102
}
330
188
100
AcDbXrecord
280
     1
 70
     1
 90
429727718
  1
508B35C9-AEE7-456F-BE74-D52651303AC6
310
504B03040A0000080000B670623B3DEE336E79000000790000001B0000006175746F6465736B2D64657369676E2D7061636B6167652E786D6C3C3F786D6C2076657273696F6E3D22312E302220656E636F64696E673D227574662D3822203F3E3C666F726D6174733E3C666F726D61743E687474703A2F2F736368656D612E
310
6175746F6465736B2E636F6D2F64657369676E2D7061636B6167652F323030393C2F666F726D61743E3C2F666F726D6174733E504B0304140006080800B670623BD486FD9CA0000000F4000000130000005B436F6E74656E745F54797065735D2E786D6C7D8EC10E82300C865F65E91D8A1E8C310C0EEA1BF002731658846E
310
D98AC1B77784ABF1D8FE5FBFBF75BBCE937A534CCEB38643598122B6FEE978D0B0485F9C41B54DDD7D022595594E1A469170414C76A4D9A4D207E29CF43ECE46F218070CC6BECC4078ACAA135ACF422C856C0E68EA1BF5669944DDD7BCDE7B1F8E415D77AECB980613C2E4AC91FC167A2B244592486606FC29C8FD7F045B9A
310
EF7053A7E60B504B0304140006080800B670623B28ED286BEB0000007C01000008000000636F72652E786D6C8D90416EC3201045AF82665B6183218D6D61A254764FD00B204C5C94182C03558F5F9C3852BBEB6A467FFE9B197D71FA9E6FE8CBACC17AD7012D0820E3B41FAD9B3A48F1826B40272956EFE32F1B20A766D3C1
310
268314D3EAD3B24BDABB685CCCAAF3A3D94515828980F42D371D04FD696655A814B3235C8B45E9AB9A4C419F5D8653B2237A1CB163DE672FD6AC209BF3C08E0D1B30EB19C3FC9D72FCC6EB231EFA33EDE96BDD341517E5064B11EDFCBCAF57A3A2194156843498524CAA0FCA5B7268F9E185D42D21A2DCEC7FA0B48CFF8492
310
759155FBBB0F2C80A4F991FB408A72CB22977B50B96EB9C91F504B0304140006080800B670623B55019EA25F0000007C00000007000000636E782E786D6C4DCB3B0E80201045D1AD90E915ED2CF8AC45050C11660C8261F98AB1B07AC9C97D42D718D865D3E909258CFD00CCE24AC6E326A164D74DC0B4128928FF32603847
310
2BA13128B1252AC747C6BAB984FC68F0B87FE8960A5C09FE86CFB69FBA01504B0304140006080800B670623B7BC41AC871010000D40300000C0000006662782F636F72652E786D6CC553ED6E8320147D15C2DF4501B56B6D90A64BBB27D80B50A5CE54C120983EFEAE1F4DD7A56BBA5FF3879273EEE59E7310BE393735EA95
310
ED2AA333CC428A91D2B9292A5D66D8BB63B0C26823B835C67D2BC348CB46657880B1E0A535BE9DA1DC68A7B403549B42CDA0EC3AE530CA6B5864B8CB3F552343E91D5474A7B095F949962A6421D0502778E72C0840D390E18DC5F170E664C205F7BE2A66B62A605A75AC94C522DDEEE3651AEF837817C741F2CE92E02D592D
310
83FD6ECB76EC7595A651C2C9D02CB8AB9A8BBADC2AE954814544691A3016D0E883256BBA58278B17BA5A53CAC9507ED3E4DBE2C9265F691747B3DCA9ADC382819091F8E1162272A8933DE82182932144F88C09DF060D8140C84E1EEA8B8F1340BDCA9DB1093085F157AA97B557309586747CD0EF0B4EA64E983A6E0EAEEFCE
310
889E9EF17847386AA94B30211D2C0FDE0D3AF9A4610EAD5536E8DD1969631B593F67E381C33F5157F17725E5A636F6BF1491F980C8FC7B90E13E8A2F504B0304140006080800B670623B70102A487D0000009D0000000B0000006662782F636E782E786D6C4DCCD10A83201886E15B91FFDC95A5C30335ACCDFB886521330D
310
A76397BF1A1DECE883878F57749FD5A3B74D2F17830472A901D9F088930B8B849267CC01754AA418F3DF0D5018572BE160506249B16C274D761E8BCFBB7A179E27F65CB39A0F14D396184C9921B81F34C3ACA1B4B99ABB6E6F062A25AA5F69DF23ACBE504B0304140006080800B670623B3610CA3329010000120200003100
310
00006662782F42384135303843342D343331462D343546312D424341352D3532343432364645413344462F636F72652E786D6C8D515B6EC32010BC0AE22B55850D0E446E848992B43E412FE000495162B07854397EA176A4F62F3F2C9A9D991D58BEBB8F37F0AD7D30CE76905418026DA553C65E3A98E219B510EC04F7CEC5
310
3F3408EC30EA0E16180A7EF12E4D0B249D8DDAC68C5AA7F4020E21E80881BCE54B0783FCD2E3500D296646B856D320AFC34557A4CAEDCC133C449F0380794839A138B47B86DB2345744D7A44594FD0E1B867883594369BFE63BF7EEF793D0B054FC9A8456E548E63CE46FB674D8A58F068C6477CE9F510B582A2C1F80D1182
310
70F349E816B32D65AFB8DD62CCEB42FF274A937A52948C8DEB66893BCB021484D7734370E5D2E9F608A3EF93F3119479ABA0E50B14B8C298119A43CCC4FCFCECB8A18B6388CEE7EF5D5D4F994BD86CBBA182D76543B9FCAE2FD7B24DF103504B0304140006080800B670623B1B8617914E0100003303000030000000666278
310
2F42384135303843342D343331462D343546312D424341352D3532343432364645413344462F636E782E786D6CD593C16EC32010447F0571AD6CE3D489D20813A9877E410FBD62D82434182CC055F3F75D1292E692438FBD206B7698593D61BEFD1E2DF982108D773D6D6B460938E5B571FB9ECE6957AD29D90A1EBC4F7736
310
4A9C1CA1A759A682EF839FA72269D8C9D92654AD71C72206887E0E0A22CAF926B15E498B01E0AA19451807D01A34B919F16B070157417138917400F2F6FA41FCF0092A45DEE414C19BDC21783E4BD39D891265658C3D8DEA00A3ACE59CBC8678ACB54CB26EEB6BD7839D7E9348BE70AD9C8321B9BCA7F9A4A26C542347DEE0
310
50F09802D22BA6749A800A394DD62899107273365E3C82CFC6A55557BC06C10774B7ABE7AEC3B0F34CF06446280E154026D0542C187BA9DAB6628BF7B6DBB0E5A65B3EB1F58631DE64BBE083F7B65CC218087E22CABB042E51D1F2268F1FE12B3EA24D40D63E9CFE00120194D60B9D5BC67FE6D39CDF37E20AF817881F504B
310
0304140006080800B670623BBFEF2E3B690500003C100000340000006662782F42384135303843342D343331462D343546312D424341352D3532343432364645413344462F6F626A656374732E786D6CAD575D739B3814FD2B0CFB0C98D84E931D4227B6938EA793B6534F3BFB90198F0099B001899144EAECAFDF231018B0
310
D37A3FFC609090EEE7B94757C1FB7D915B2F54C88CB31BDB7727B64559CC938CA53776A576CE956DBD0F03C1B9EA2DB32D460A7A63EB693B0C52C1ABD24C257447AA5C8D66EF177F5832A68CDA569C13296F6C193FD182B8A4523CA1F2D94D88226EBADBBBBEDB2C1C8A4D05299F46424B222853B014F30C52ACC6287F389C
310
D85E1878FA7B18E87FB36AFAF62AAFF667A83F635211161F291B8999FAB3D5DDC5FCDA99CF6653677679E13B8BFBC5CAF1DF4D27CBCBE5F2FAF6EE1A8AA51290642C117467871F101B91C581D77CEA2C36869F3229E68CD1B8F61F1ED6361B89092D294B90C78C4A68EB793D190E7D1D9BDEE7A91E1B95FDE9F3BCEAEFE809
310
6A6D6F9F7D4B79F4275C90E7A04248AA51D5C4C738DAE06F72885AC4796EBE65D22A88A22223B995679120E2D50EB1542F098381188D4EA111AE3DB043FF20AF6F2B4AE3D7D83D65E5AECA730D4D3BAC91BD05FEA992B565D95F549CD6069B90AB2A63EACA38A45E4B6A87D781574F86817E4C2FCCC72690D62E2729520E37
310
9BAF234797BAF6D62B3BFC781FED37BA1E4F2B2F052FA9501A3E80569BB8F6A9A364D4FA67654E6F803383981F82F21591FF84F23D9882BC896C3FDBCF8C162508933B2E0AE4C69DD43F6BD2BE38DDDBF10BF86CB4FA784D37F3AF16075E67EC9030DECA1FC0A55373F5DFF3378C591FA9BDF485C10B0A8C8BA909E5262639
310
A8E72163488806A595734C81CB77D1DE0ED7604A303B76913CEC0272F412782FF88EFF4636D8AA56DF7B322474C4B767303F625997056C7B032C473C592B36CEBD15F3F9FF5233B7ABCDC74D257624A60F8658567497B14CE1EC3C80B76FD02011038F9EE9EB0F2E12387A9C844D3F09855125116D1D731DF8B43D2CF4E0A0
310
79A020C6BE946BCE0B7EA1E1219331CD73C228AF5A2DDD31A4B1DA918CE91350854D40A71723140BFA92E94E62B0626016CEFA5864A50E5977E8753CEDBEE1CBB7F52780D20E17AF0BA0F5F9B02A3AD07DCC732EB6D1EBB661421BE0C39E21BABF0FE16D22EA6929407C8DE596724C88B749B6DB5512BC7B228ADFD7CB7EA6
310
3A22397E690BA8D5D8D4E40CEC8CDA23C2C0B7D5898640101CEC9C6D331CE328CB93CAFBBAC70A642DF70DF95155945B52F08AA973C23469FD69ADEF84F7BB18F983A8F8C90E37F5D35980B2139A1C523540813E824EF83448CF7C72B598CE97D7CEEDDDDD3B6736BFBC771677EF66CE6A7E7139F7A793E9EDF2B2B3A8B624
310
0CDA13AA5F8388264EC4A0129909F3B7F5A16CEDF08128E97D680ACA4B9BE7B7B58BB638F0B00700EF36AE8B32A705658A68F83EE897FC2B41573190D1CCAF0B92D233A47CFEB019D9809933F67DD1A5467F8CF69AD9A5AE859342D45355448C64F968A371DC2D596ADC6E43D93D1B466F877A64E2893E54F23C4B40388995
310
525E5005DA3983ED45412510D3EFCA13737B3863F74BD30F2A12E5B4B5E489A025CE25500DB855B11ACE5BBFA185D35DD48D8DC3CE7DC69F2944DB42AA6F6CF09BCA622ADD08C7A36E7C6AE18000BAB08E040135C2D21C9D75B3A91B77BB746C403F38018DFE6EC939DD92F16B40BC05294B9CDA035AAD6D330AE27FE4786B
310
8E45145EA34A75BE1C263A676A35A8ACC6297337400BF16C54EF515F3F77CB77EB3583889C754FFA29081AA98E2222ADEF05DA3E63D2EDEA8B8756C05A7FB6CABC4A91CBF325398202CC952E70A008A830324BA200D5E5EF8F5F04C75DB4B0EE3340E071C98B823333B83577596BF3849B69F2085AA0FAFA212F26BEFF5877
310
FDE622B28D88A42E49E43326DA82D31E8CB006401E1DA726059ECEC168F97A6599036306A135688F9AD2E61A6EA178F4CD51974A9F2CCB9F36FE5EBD14601068D9C3BF01504B0304140006080000B670623B000000000000000000000000350000006662782F42384135303843342D343331462D343546312D424341352D35
310
32343432364645413344462F76657274696365732E62696E504B0304140006080800B670623BF270F1330600000004000000360000006662782F42384135303843342D343331462D343546312D424341352D3532343432364645413344462F747269616E676C65732E62696E636660600000504B0304140006080000B67062
310
3B000000000000000000000000370000006662782F42384135303843342D343331462D343546312D424341352D3532343432364645413344462F617474726962757465732E62696E504B0304140006080800B670623B08DA0BD19000000041010000360000006662782F42384135303843342D343331462D343546312D4243
310
41352D3532343432364645413344462F6469726563746F72792E786D6C858F410AC3201045AF22B36F53E9A60B35CBEEBAE80D244E44489C6234F4F835464A48035D0DF398FF9F8AF63D0E6CC63039F212F8F9020C7D47C6792B21C5FE7403D62A1188E2E60C98D7234A5830286103A55745067B9D86B8A3CF9C7F90C11DE6
310
07FB144396D7B6A82D282E9A152AD114D5EF2CB866EEE831B8EEA07A7BB5A8D7D61A2BAAEB7FD5F70921FF497D00504B0304140006080800B670623B3B4606F3FE000000A00100003B0000006662782F42384135303843342D343331462D343546312D424341352D3532343432364645413344462F7265736F75726365732F
310
636F72652E786D6C8D504B6E833010BD0A9A6D65B08134808CA354A427E8052C332156828DFCA97AFC9A40A576D7CDCCE87D344F8F9FBEE647F689CE6B6B7A6039850C8DB2A336530F315C4903D94970676DF82583CCC8197B5861107C72362E3BA4AC096842428D1D7107A5F71820538F74F4E0D50D6799CB1892C2DFF345
310
AABB9C306779A2934E701F5C0A906D4FD609C2A1B7D129F4BCD858C163D4E3AED163FAA9AF1A1D88F67CA98E6D35906AA82A52BFB39ABCD5CD915C86331BD86BD3B665CD8BD52C78D0F34F46E550061C419494B6843142CB0F5677F4D0D58717DA7494F26295FF31C565FCA7296A13AA728FBBD93C0896823C09C18BB5AFB4
310
9E65A6BD762BBE01504B010214000A0000080000B670623B3DEE336E79000000790000001B00000000000000000000000000000000006175746F6465736B2D64657369676E2D7061636B6167652E786D6C504B01021400140006080800B670623BD486FD9CA0000000F40000001300000000000000000000000000B2000000
310
5B436F6E74656E745F54797065735D2E786D6C504B01021400140006080800B670623B28ED286BEB0000007C010000080000000000000000000000000083010000636F72652E786D6C504B01021400140006080800B670623B55019EA25F0000007C000000070000000000000000000000000094020000636E782E786D6C50
310
4B01021400140006080800B670623B7BC41AC871010000D40300000C00000000000000000000000000180300006662782F636F72652E786D6C504B01021400140006080800B670623B70102A487D0000009D0000000B00000000000000000000000000B30400006662782F636E782E786D6C504B01021400140006080800B6
310
70623B3610CA3329010000120200003100000000000000000000000000590500006662782F42384135303843342D343331462D343546312D424341352D3532343432364645413344462F636F72652E786D6C504B01021400140006080800B670623B1B8617914E010000330300003000000000000000000000000000D10600
310
006662782F42384135303843342D343331462D343546312D424341352D3532343432364645413344462F636E782E786D6C504B01021400140006080800B670623BBFEF2E3B690500003C10000034000000000000000000000000006D0800006662782F42384135303843342D343331462D343546312D424341352D35323434
310
32364645413344462F6F626A656374732E786D6C504B01021400140006080000B670623B0000000000000000000000003500000000000000000000000000280E00006662782F42384135303843342D343331462D343546312D424341352D3532343432364645413344462F76657274696365732E62696E504B010214001400
310
06080800B670623BF270F133060000000400000036000000000000000000000000007B0E00006662782F42384135303843342D343331462D343546312D424341352D3532343432364645413344462F747269616E676C65732E62696E504B01021400140006080000B670623B00000000000000000000000037000000000000
310
00000000000000D50E00006662782F42384135303843342D343331462D343546312D424341352D3532343432364645413344462F617474726962757465732E62696E504B01021400140006080800B670623B08DA0BD1900000004101000036000000000000000000000000002A0F00006662782F42384135303843342D3433
310
31462D343546312D424341352D3532343432364645413344462F6469726563746F72792E786D6C504B01021400140006080800B670623B3B4606F3FE000000A00100003B000000000000000000000000000E1000006662782F42384135303843342D343331462D343546312D424341352D3532343432364645413344462F72
310
65736F75726365732F636F72652E786D6C504B0506000000000E000E0080040000651100000000
  0
XRECORD
  5
187
102
{ACAD_REACTORS
330
186
102
}
330
186
100
AcDbXrecord
280
     1
 70
     1
 90
429727718
  1
887D55A9-D0DD-414E-B741-A7DCD4DA2B4C
310
504B03040A0000080000B670623B3DEE336E79000000790000001B0000006175746F6465736B2D64657369676E2D7061636B6167652E786D6C3C3F786D6C2076657273696F6E3D22312E302220656E636F64696E673D227574662D3822203F3E3C666F726D6174733E3C666F726D61743E687474703A2F2F736368656D612E
310
6175746F6465736B2E636F6D2F64657369676E2D7061636B6167652F323030393C2F666F726D61743E3C2F666F726D6174733E504B0304140006080800B670623BD486FD9CA0000000F4000000130000005B436F6E74656E745F54797065735D2E786D6C7D8EC10E82300C865F65E91D8A1E8C310C0EEA1BF002731658846E
310
D98AC1B77784ABF1D8FE5FBFBF75BBCE937A534CCEB38643598122B6FEE978D0B0485F9C41B54DDD7D022595594E1A469170414C76A4D9A4D207E29CF43ECE46F218070CC6BECC4078ACAA135ACF422C856C0E68EA1BF5669944DDD7BCDE7B1F8E415D77AECB980613C2E4AC91FC167A2B244592486606FC29C8FD7F045B9A
310
EF7053A7E60B504B0304140006080800B670623BBC1638F5EC0000007C01000008000000636F72652E786D6C8D90416EC3201045AF82665B61836BE2D8C24471DB9CA01740401C94182C03558F5F9C3852BBEB6A467FFE9B197D7EF89E6EE8CB2CC17AD7032D0820E394D7D68D3DA478C67B4007C117EFE32F1B202727D3C3
310
2A83E0E3E2D3BC49CABB685CCCAAF3DA6CA20CC14440EA969B1E82BA98491632C5EC08D76296EA2A4753D06797E194AC468F2356E77DF66CCD02825543D50CACC62D39ED70FDC68EB8FD68F6F8787A6784342D1DDA1D2F5758F068A7E77DB518198D065111D2624A31A93E69DD11D6D5EC85EC3B4278B9DAFF4069D6FF8492
310
75F1B5DADE7D600104CD8FDC0782976B16B9DC83CA75CD4DFC00504B0304140006080800B670623B55019EA25F0000007C00000007000000636E782E786D6C4DCB3B0E80201045D1AD90E915ED2CF8AC45050C11660C8261F98AB1B07AC9C97D42D718D865D3E909258CFD00CCE24AC6E326A164D74DC0B4128928FF326038
310
472BA13128B1252AC747C6BAB984FC68F0B87FE8960A5C09FE86CFB69FBA01504B0304140006080800B670623B3586FFB671010000D40300000C0000006662782F636F72652E786D6CC553ED6E8320147D15C2DF4541A76D6D90A6DDD627D80B50A4CE54C120983EFEAE1F4DD7A55BBA5FF3879273EEE59E7310B6393735EA
310
95ED2AA3731C851423A5A5292A5DE6D8BB63B0C268C39935C67D29C3488B46E578803167A535BE9D2169B453DA01AA4DA16650749D7218C91A1639EEE4876A4428BC838AEE14B6429E44A9C228041AEA38EB9C0501681A32BC313F1ECE8C4C3867DE57C5CC56054CAB8E95B298A7F12E5EEED224C8E87E11242FE936C8DE96
310
AB60BB7F4D295D66D12E5B30323473E6AAE6A24E5A259C2A308F29CD82280A68FC1E256B9AAE93F489AED694323294DF34F9B678B0C957DA3DC7B3DCA9ADC33C022123F1CD2D44E450277AD04338234388F01913BE0D1A0281909D38D4171F27807A259DB1093085F157AA17B557309586747CD0CF0B46A64E983A6E0EAEEF
310
CE881F9EF1FB8E70D44297604238581EBC1B74B249C31C5AAB6CD0BB33D2C636A27ECCC62F0EFF445DC5DF95244D6DEC7F2922F30191F9F720C37DE49F504B0304140006080800B670623B4220A0FF7D0000009D0000000B0000006662782F636E782E786D6C4DCCD10A83201886E15B91FFDCE542CB0335D0EC3E6259C84A
310
C3E9D8E5AF46073BFAE0E1E315DD675BD1DBA5978F41C2FD4600B9F088930F8B849267CC01754AA418F3DF0D50183727E164506249B1EC174D6E1ECB9A0F5D7D785E68DB8151CD286E5A5363CA6B8A39E90D36D40E96B086F55A43A544F52B1D7B86D517504B0304140006080800B670623B2FA3FEDE290100001202000031
310
0000006662782F45374635344235342D363743322D343832342D383044432D4334454645303536354442422F636F72652E786D6C8D515B6EC32010BC0AE22B55850D2E386E848994D7097A0117488A1283C5A3CAF10BB523B57FF961D1ECCCECC0F2ED7DBC816FED8371B687A4C210682B9D32F6D2C314CFA883602BB8772E
310
FEA141608751F7B0C050F08B77695A20E96CD43666D43AA5177008414708E42D5F7A18E4971E876A483133C2B59A06791D2EBA22556E679EE021FA1C00CC43CA09C5717D6274C7286AD7FB06D1AEA1A8C3873DDAD3E3E98859CB0EBB1DAF67A1E02919B5C88DCA71CCD968FFAC49110B1ECDF8882FBD1EA256503418BF2342
310
106E3E08DD60B6A1EC15771B8C795DE8FF4469524F8A92B1F1AD59E2CEB20005E1F5DC105CB9F4797B84D1F7C9F908CABC55D0F2050A5C61CC1AD2F27A26E6E767C7962E8E213A9FBF7775FDCC5CC266DB960A5E970DE5F2BBBE5CCB36C50F504B0304140006080800B670623B1B8617914E01000033030000300000006662
310
782F45374635344235342D363743322D343832342D383044432D4334454645303536354442422F636E782E786D6CD593C16EC32010447F0571AD6CE3D489D20813A9877E410FBD62D82434182CC055F3F75D1292E692438FBD206B7698593D61BEFD1E2DF982108D773D6D6B460938E5B571FB9ECE6957AD29D90A1EBC4F77
310
364A9C1CA1A759A682EF839FA72269D8C9D92654AD71C72206887E0E0A22CAF926B15E498B01E0AA19451807D01A34B919F16B070157417138917400F2F6FA41FCF0092A45DEE414C19BDC21783E4BD39D891265658C3D8DEA00A3ACE59CBC8678ACB54CB26EEB6BD7839D7E9348BE70AD9C8321B9BCA7F9A4A26C542347DE
310
E050F09802D22BA6749A800A394DD62899107273365E3C82CFC6A55557BC06C10774B7ABE7AEC3B0F34CF06446280E154026D0542C187BA9DAB6628BF7B6DBB0E5A65B3EB1F58631DE64BBE083F7B65CC218087E22CABB042E51D1F2268F1FE12B3EA24D40D63E9CFE00120194D60B9D5BC67FE6D39CDF37E20AF817881F50
310
4B0304140006080800B670623B29652116630500003C100000340000006662782F45374635344235342D363743322D343832342D383044432D4334454645303536354442422F6F626A656374732E786D6CAD575D739B3814FD2B0CFB0C989834C90EA1639B24E3E9A6EDD4D3CE3E64C623834CD8006224913AFDF57B040203
310
B65BEF871F0C12D2FD3CF7E8CA7FBFCB33E3957291B2E2D674ED8969D02262715A24B76625B7D6B569BC0F7CCE98EC2D338D82E4F4D654D366E0279C55A59E8AE99654991CCDDECFFF3444440B6A1A514684B83545F44C7362934AB2988A173B2692D8C97667BB76B3702836E1A47C1E092D09A78584A5982F20C5688C7287
310
C389E904BEA3BE07BEFAD7ABA6A75739B53F43FD69212429A20365233153D70BEF2E2E6FAC4BCF9B5ADEBB0BD79ADFCF43CBBD9A4E16EF168B9BD9DD0D140BC921495BC2E9D60C1E101B9E46BED37CEA2CD6861F3329624541A3DA7F7858DBAC25C6B4A4458C3CA654405BCFEBC970E8AAD8F43E4FD558ABEC4F9FE7557F47
310
4F506B7BFBEC5BCA367FC105710E2AB8A00A554D7CB4A30DFE26FBA86D18CBF4B75418399194A72433B274C3097F33032C554B027F2046A1932B842B0FCCC0DDCBEBDB8AD2F835768F59B9ADB24C41D30C6A64AF817F2A456D59FA83F2E3DA60137255A585BCD60EC9B7929AC18DEFD49381AF1ED30BFDB109A4B1CD488294
310
C3CDE6EBC8D185AABD6568061FEE37BB95AAC7E3CA4BCE4ACAA5820FA0D526AE7DAA2869B5EE5999531BE0CC20E6FBA07C41E43FA27CF7A6206F3CDD793B4F6B919C1462CB788EDCD893FA674CDA17AB7B3B7C019F8D561FAEE966FED562DFE98C1D12C6A9FC015C2A35D7FF3D7FC398F591DA4B5FE0BFA2C0189FEA50AE22
310
92817A1ED3020951A03432862970F976B33383259812CC8E5D240BBA801CBCF8CE2BBEE3BF910DB6AAD5F79E05123AE2DB33981FB1ACCB02B69D00CB014FD68AB573A7627EF9BFD4CC2C5C7D58557C4B22FAA88925A4DBB44825CECE3D78FB060D1231F0E885BE7D673C86A3874958F593906B5502D1563157814FDAC3420D
310
F69A070A22EC4B98E23CFF171A1E5311D12C23056555ABA53B8614563B92D17D02AAB009E8F46284624E5F53D5490C560CCCC2591FF1B45421EB0EBD8EA7ED13BE7C5D7E0428CD60FEF60779EB13E6664FF711CB185F6FDED60D139A001FF60CD1FD6D086F1D51474901E26B2CB794A343BC8ED3EDB612E0DD2351FCB65CF4
310
33D511C9E14B5B40ADC6A6263DB0336A8F700DDF56271A024E70B0B3629DE21847591E55DED73D56206AB927E46FAABC5C939C55853C274C93D69FD6FA4E78BF8B11DF898C9ECD60553FAD39283BA6F18984AA23E8884F83F45C5F5F859797B31B2B9C84A1E5B9DE9D35BFF25C6B76152E422F9C5DCC3D847F5801ED09D5AF
310
41441327A25FF15487F9EB725FB666F048A4701E9A827292E6F97569A32DF61DEC01C0BB8DCBBCCC684E0B49147C1FD54BF685A0AB18C868E6973949E819523E3DAC463660E68C7D9F55A9D1EFA3BD7A76A16AE1A810F95CE59B82A4D968A376DC2E8B44BBDD86B27B368CDE0ED548C7137DA860591A83706223A12CA712B4
310
7306DBF39C0A20A6DF95C7FAF670C6EED7A61F946493D1D6926782963813403548A78AE470DEF80D2D9CEAA26E4D1C76F60BFE74219A06527D6B82DF641A51616F703CAAC6A7160E08A00BEB4810A0274592A1B36E3675E36E978A0DE80727A0D6DF2D39A75BD27E0D8837276589537B40ABB56D5A41F48F1C6FCD3188C4EB
310
A6929D2FFB89CE995A4D00AE813BDD032DC48B56BD437DFDDC2DD7AED70C2272D63DE9A72068A45A92F0A4BE17A8A06B9366E16707AD80B1FC649459952097E74BB23805982B55E0401150A165964402AA8BDF9F3E7386BB686EDCA780C0D382E5392BF460A6EFB2C6EA1937D3F809B440D5F5435C4C5CF7A9EEFAF54564BD
310
2182DA24162F98680B4E7930C21A0079709CEAEB99A372305ABE0C0D7D6078105A83F6A0296DAEE1068A47DD1C55A9F4C9B2FC69E3EFD44B81028E963DF81B504B0304140006080000B670623B000000000000000000000000350000006662782F45374635344235342D363743322D343832342D383044432D433445464530
310
3536354442422F76657274696365732E62696E504B0304140006080800B670623BF270F1330600000004000000360000006662782F45374635344235342D363743322D343832342D383044432D4334454645303536354442422F747269616E676C65732E62696E636660600000504B0304140006080000B670623B00000000
310
0000000000000000370000006662782F45374635344235342D363743322D343832342D383044432D4334454645303536354442422F617474726962757465732E62696E504B0304140006080800B670623B08DA0BD19000000041010000360000006662782F45374635344235342D363743322D343832342D383044432D4334
310
454645303536354442422F6469726563746F72792E786D6C858F410AC3201045AF22B36F53E9A60B35CBEEBAE80D244E44489C6234F4F835464A48035D0DF398FF9F8AF63D0E6CC63039F212F8F9020C7D47C6792B21C5FE7403D62A1188E2E60C98D7234A5830286103A55745067B9D86B8A3CF9C7F90C11DE607FB144396
310
D7B6A82D282E9A152AD114D5EF2CB866EEE831B8EEA07A7BB5A8D7D61A2BAAEB7FD5F70921FF497D00504B0304140006080800B670623B6378F24DFF000000A00100003B0000006662782F45374635344235342D363743322D343832342D383044432D4334454645303536354442422F7265736F75726365732F636F72652E
310
786D6C8D504B6E833010BD0A9A6D65B0094E42641C85B639412F6099496225D8C89FAAC7AF09546A77DDCC8CDE47F3F4C4F16B7C149FE88371B603565228D06A37187BED20C50BD9437194C23B177FC9A0B06AC40E6618A4B87A97A615D2CE46B431A3D60DB8822A048C50E8473E3A08FA86A32A558A5911EEE5A4F45D5DB1
310
6465A6B34E8A107D0E502C4FE609D26370C96B0CA25A58295232C3AA3143FE692E063D485EF7F5AEE71BD2D2F39634AFFC44DAF7DD9E9CCE6F9CD25DCBFA762BAAD92C4534E34F46ED51451C40D694B6843142EB0FD61C283F34FC85EE0F948A6A96FF31A569F8A729191B37F51A77B105902C0779125254735F793DCBCC7B
310
EE567E03504B010214000A0000080000B670623B3DEE336E79000000790000001B00000000000000000000000000000000006175746F6465736B2D64657369676E2D7061636B6167652E786D6C504B01021400140006080800B670623BD486FD9CA0000000F40000001300000000000000000000000000B20000005B436F6E
310
74656E745F54797065735D2E786D6C504B01021400140006080800B670623BBC1638F5EC0000007C010000080000000000000000000000000083010000636F72652E786D6C504B01021400140006080800B670623B55019EA25F0000007C000000070000000000000000000000000095020000636E782E786D6C504B010214
310
00140006080800B670623B3586FFB671010000D40300000C00000000000000000000000000190300006662782F636F72652E786D6C504B01021400140006080800B670623B4220A0FF7D0000009D0000000B00000000000000000000000000B40400006662782F636E782E786D6C504B01021400140006080800B670623B2F
310
A3FEDE290100001202000031000000000000000000000000005A0500006662782F45374635344235342D363743322D343832342D383044432D4334454645303536354442422F636F72652E786D6C504B01021400140006080800B670623B1B8617914E010000330300003000000000000000000000000000D2060000666278
310
2F45374635344235342D363743322D343832342D383044432D4334454645303536354442422F636E782E786D6C504B01021400140006080800B670623B29652116630500003C10000034000000000000000000000000006E0800006662782F45374635344235342D363743322D343832342D383044432D4334454645303536
310
354442422F6F626A656374732E786D6C504B01021400140006080000B670623B0000000000000000000000003500000000000000000000000000230E00006662782F45374635344235342D363743322D343832342D383044432D4334454645303536354442422F76657274696365732E62696E504B01021400140006080800
310
B670623BF270F13306000000040000003600000000000000000000000000760E00006662782F45374635344235342D363743322D343832342D383044432D4334454645303536354442422F747269616E676C65732E62696E504B01021400140006080000B670623B0000000000000000000000003700000000000000000000
310
000000D00E00006662782F45374635344235342D363743322D343832342D383044432D4334454645303536354442422F617474726962757465732E62696E504B01021400140006080800B670623B08DA0BD190000000410100003600000000000000000000000000250F00006662782F45374635344235342D363743322D34
310
3832342D383044432D4334454645303536354442422F6469726563746F72792E786D6C504B01021400140006080800B670623B6378F24DFF000000A00100003B00000000000000000000000000091000006662782F45374635344235342D363743322D343832342D383044432D4334454645303536354442422F7265736F75
310
726365732F636F72652E786D6C504B0506000000000E000E0080040000611100000000
  0
XRECORD
  5
112
102
{ACAD_REACTORS
330
110
102
}
330
110
100
AcDbXrecord
280
     1
270
     1
271
     1
  0
XRECORD
  5
111
102
{ACAD_REACTORS
330
110
102
}
330
110
100
AcDbXrecord
280
     1
270
     1
271
     1
  0
XRECORD
  5
18A
102
{ACAD_REACTORS
330
110
102
}
330
110
100
AcDbXrecord
280
     1
 70
     0
 90
1778669749
  1
9BF507EE-FAF7-4A99-A33D-4EE51894BC40
310
504B03040A0000080000B670623B3DEE336E79000000790000001B0000006175746F6465736B2D64657369676E2D7061636B6167652E786D6C3C3F786D6C2076657273696F6E3D22312E302220656E636F64696E673D227574662D3822203F3E3C666F726D6174733E3C666F726D61743E687474703A2F2F736368656D612E
310
6175746F6465736B2E636F6D2F64657369676E2D7061636B6167652F323030393C2F666F726D61743E3C2F666F726D6174733E504B0304140006080800B670623BD486FD9CA0000000F4000000130000005B436F6E74656E745F54797065735D2E786D6C7D8EC10E82300C865F65E91D8A1E8C310C0EEA1BF002731658846E
310
D98AC1B77784ABF1D8FE5FBFBF75BBCE937A534CCEB38643598122B6FEE978D0B0485F9C41B54DDD7D022595594E1A469170414C76A4D9A4D207E29CF43ECE46F218070CC6BECC4078ACAA135ACF422C856C0E68EA1BF5669944DDD7BCDE7B1F8E415D77AECB980613C2E4AC91FC167A2B244592486606FC29C8FD7F045B9A
310
EF7053A7E60B504B0304140006080800B670623BCA089DFFEC0000007C01000008000000636F72652E786D6C8D90416E83301045AF62CDB632D8402020E32882F604BD80653BC44AB011B6AB1EBF262152BBEB6A467FFE9B197D76FA9EEFE84BAFDE38DB03CD08206DA553C64E3DC470C1474027CE56E7C22F1B202B66DDC3
310
260367D3EAE2B24BD2D9A06D48AA754AEFA2F05E0740F29E9A1EBCBCEA59642286E4F0B76C11F226269DD15797E0188D42CF2346A57DE662F40ABCAEC77628C6120F654571D50C04B7F5B9C1E3997CD4F550BE3745C3F20DE62C98F9755FAE5A04AD801784B498524C8A4F5A75E4D055873772EC0861F966FF03C545FD138A
310
C686B2D8DF7D621E384D8F3C069CE55B16A93C824A75CB8DFF00504B0304140006080800B670623B55019EA25F0000007C00000007000000636E782E786D6C4DCB3B0E80201045D1AD90E915ED2CF8AC45050C11660C8261F98AB1B07AC9C97D42D718D865D3E909258CFD00CCE24AC6E326A164D74DC0B4128928FF326038
310
472BA13128B1252AC747C6BAB984FC68F0B87FE8960A5C09FE86CFB69FBA01504B0304140006080800B670623B68FC0B7272010000D40300000C0000006662782F636F72652E786D6CC5535B6E833010BC8AE5DF0A6C1E8124328E22D29EA01770C0A128602363A31CBFCB234A53A555FA553EC09AD9F5CE8C31DB5DDA060D
310
D2F4B556190E7C8A9154852E6B5565D8D993B7C668C799D1DA7E29C3488956667884316795D1AE5BA0422B2B950554E9522EA0E87B69312A1A5864B82F3E642B7CE12C54F467BF13C55954D20F7CA0A18EB3DE1A1080E621E31BF3D3F1C2C88C73E65C5D2E6C5DC2B4FA544B8379921C36797888BC3C8A032F4E73EA6D927D
310
EA1DF6F42D49F2E8350D5346C666CE6CDD5ED515460A2B4BCC434A375E1078347C0FE22D5D6DE3D50B5D6F2965642CBF6B725DF96493AB958DC245EEDCD6631E809089F8E61622B2A81703E8219C913144F84C09DF070D8140C8561C9BAB8F3340832CAC363130A576376A108D933095FA747AD0CF0B46E64E983A6D0EAE1F
310
CE089F9EF1FB8E70D44255604258581E9D1D75B259C3125A278D37D80B52DAB4A279CEC62F0EFF44DDC43F9454E8469BFF5244960322CBEF41C6FBC83F01504B0304140006080800B670623B0F71DDB67E0000009D0000000B0000006662782F636E782E786D6C4DCCD10A83201886E15B91FFDCA54DB73F502386BB8F5816
310
32D3703976F9ABD1C18E3E78F87855FB990379BBFCF2296AE02706C4C5471A7C9C349475A408A4352AA7B4FEDD80C47E761A7606A3A69CCA72D0E0C6BE8475D3E0E3F3409428EA6B27A84079A782899AA2EC1A7AE3ECCC2FD858CB2D544655BFD2B67BD87C01504B0304140006080800B670623BE134B4FB28010000120200
310
00310000006662782F38353834323741342D343835462D343034322D383541392D4331303331363839454531452F636F72652E786D6C8D515B6EC32010BC0AE22B55850D0EA424C24451959EA0172086A42831583CAA1CBF503B52FB971F16CDCECC0EACD8DFC71BF836215AEF7A481A0C817183D7D65D7A98D3197108F652
310
04EFD31F1A044E8DA6871586525C82CFD3020DDE25E352419DD76601558C264130DCCAA58771F832A36A544E8511AFCDA486ABBA988634A55D7852C4144A00300FA927949C71DABD1D28A29C7D208A6987383B6CD13BC16BB2E1DBE3911C453B0BA5C8D9EA456E758963CFD684674DAA588A64C747FC2118958C86B2C3788B
310
0841B8FB247487D98EB257CC77188BB6D2FF89F2A49F1465EBD2BA5BE2CEB2082511EDDC9042FB7CBA3DC298FBE4430275DE2A9AE1054ADC60CC08E3A29D89E5F9C5714317C7987C28DFBBBA9E0A97B0D97643A568EB864AF95D5FA9759BF207504B0304140006080800B670623B1B8617914E010000330300003000000066
310
62782F38353834323741342D343835462D343034322D383541392D4331303331363839454531452F636E782E786D6CD593C16EC32010447F0571AD6CE3D489D20813A9877E410FBD62D82434182CC055F3F75D1292E692438FBD206B7698593D61BEFD1E2DF982108D773D6D6B460938E5B571FB9ECE6957AD29D90A1EBC4F
310
77364A9C1CA1A759A682EF839FA72269D8C9D92654AD71C72206887E0E0A22CAF926B15E498B01E0AA19451807D01A34B919F16B070157417138917400F2F6FA41FCF0092A45DEE414C19BDC21783E4BD39D891265658C3D8DEA00A3ACE59CBC8678ACB54CB26EEB6BD7839D7E9348BE70AD9C8321B9BCA7F9A4A26C542347
310
DEE050F09802D22BA6749A800A394DD62899107273365E3C82CFC6A55557BC06C10774B7ABE7AEC3B0F34CF06446280E154026D0542C187BA9DAB6628BF7B6DBB0E5A65B3EB1F58631DE64BBE083F7B65CC218087E22CABB042E51D1F2268F1FE12B3EA24D40D63E9CFE00120194D60B9D5BC67FE6D39CDF37E20AF817881F
310
504B0304140006080800B670623B5933D422630500003B100000340000006662782F38353834323741342D343835462D343034322D383541392D4331303331363839454531452F6F626A656374732E786D6CAD575B6FA33814FE2B887D0642934E9B156594264D158D3A534DD4D13E548A0C38942D60649B4EBABF7E3F8321
310
40924EF6928780CDF1B97EE762EFF32E4B8D37CA45C2F21BD3B547A641F39045491EDF98A5DC5AD7A6F1D9F73863B243661A39C9E88DA9B64DDF8B392B0BBD15D12D295339D85DDEFE618890E6D434C2940871638AF08566C426A5641115AF764424B1E3EDCE76ED9AB0CF36E6A47819302D08A7B984A6D8CFC1C5A89572FB
310
CB91E9F89EA3BEFB9EFAD754E3D3544E654F5F7E920B49F2F040D880CDD89D2CEE2E2EA7D6E56432B6269F2E5CEB7679BBB0DCABF168FE693E9FCEEEA6102C240727AD09A75BD3BF876F78127A4EFDA9D5582B7E4CA590E5390D2BFB6161A5B3E618D182E611E2985001691DAB47FDA5AB7CD3F93C566B2DB2BB7D9E55DD13
310
1D468DEECDB3AB290BFE8409E21C54704115AA6AFF68436BFC8DF65E0B184BF5B74418199194272435D224E084BF9B3E481589EFF5D828747285706581E9BB7B7E5D5D911ABFC6EE312DB7659A2A689A7E85EC0DF04FA5A8344BFEA2FCB834E8845895492EAFB541F2BDA0A63FF59C6AD3F7D4637CA13FD68E34B629891172
310
98597F1D183A57B9B75A98FE9765B05BAB7C3C2EBCE0ACA05C2AF8005A4DE09AA7F29216EB9E15397500C6F47CBE77CA7778FE2BD277AF0AE2C693DD6437D1522427B9D8329E2136F6A8FA19A3E6C56ADF0E5F50CF06D48734EDCEBF22F69C56D97EC138153F804B85E6FABFC7AFEFB32E523BE1F3BD372418E363EDCA7548
310
52949E8724474014288D94610BB57C1BEC4C7F854A89CA8E5324F55B871CBC78CE1BBEE3BFE68D6A5589EF3C730474506FCFA8FCF0659516D0ED04580EEA6425581B77CAE797FF4BCECC16EB2FEB926F49481F746159D06D922712BD730FDEAE42BD40F42C7AA5EF3F198F60E86110D6DD20645A9480B795CF95E3E3A659A8
310
C55E724F408873315335CFFB8584874484344D494E59D94869DB90C26A5B64F49C802CAC1D3ABE18A098D3B7444D123D8A9E5AE8F5214F0AE5B2B6E9B575DA3E61CBD3EA2B4009FA940524DD1305FB6A1FB294F14DF0BEA90BA109ECE1481FDC3FFAE8D60E75141700BE82725371B4873751B2DD960265F788137FACE6DD40
310
B575E4F0A5C99F46629D92131467A41EE11ABD8D4CCC039CA0AFB37C93A08B232B8F0AEFCA1E0A1015DF13FC83322B362463652ECF71D3A8B1A7D1BE65DE1D62C44F22C317D35F574FEB16153BA2D13E543D10A80E74C4A65E78A6B7CBCBD1D5DD9DB59C2DAFACC96C3AB566E3F1C29ADCDD5DBAD7D3C9ED7C822ED74F80A6
310
41755310DE4443F44A9E68373FADF6596BFA0F440AE7BECE2727AE9F4F2B1B53B1E7E00CF0DD1E5C65454A339A4BA2D0FBA05ED2EF0443458F47BDBFCA484CCFE0F2ED7E3DD0013B679C7B5499467F0ECEEADDB9CA85A34CE44B99053949D2C1416DB85DE4B136BB7165FBAC0B7AB3542BED4F8CA182A549847A1319316519
310
95A83A67147B9E5101C47487F2485F1ECE38FD568F839204296D3479219888530154036E6528FBFBC66F98E0D4107563A2D7D9AFF8D389681A08F58D89F22693900A3B407754734FC51C10C010D6D640809EE4718AC1BA3ED4AEDB53CA37283F68805A7E4B72CEB0A4EDEAD5DD8C14059A76AFAA56BA6901E13F32BC51C720
310
12AF41295B5BF61BAD3195181FB506E6B40F4C10AF5AF40EF9F5B159AE5DD1F43C72D635E94310D45C2D49785C5D0B94D3B54AB3C5A38349C0587D338AB48C11CBF339599C02CCA54A70A008A8D03C0B2201D5F9EFCF8F9CE12A9A19CB0410789EB32C63B95ECCF455D658BFE0621A3DA32C5075FB101723D77DAE867E7D0F
310
D90444509B44E2151B4DC2290B065803200FBAA9BE9D392A0603F2D5C2D00D6302A615680F66D2FA166E2079D4C551A54AB758161FCEFD4E450A14704CECFEDF504B0304140006080000B670623B000000000000000000000000350000006662782F38353834323741342D343835462D343034322D383541392D4331303331
310
363839454531452F76657274696365732E62696E504B0304140006080800B670623BF270F1330600000004000000360000006662782F38353834323741342D343835462D343034322D383541392D4331303331363839454531452F747269616E676C65732E62696E636660600000504B0304140006080000B670623B000000
310
000000000000000000370000006662782F38353834323741342D343835462D343034322D383541392D4331303331363839454531452F617474726962757465732E62696E504B0304140006080800B670623B08DA0BD19000000041010000360000006662782F38353834323741342D343835462D343034322D383541392D43
310
31303331363839454531452F6469726563746F72792E786D6C858F410AC3201045AF22B36F53E9A60B35CBEEBAE80D244E44489C6234F4F835464A48035D0DF398FF9F8AF63D0E6CC63039F212F8F9020C7D47C6792B21C5FE7403D62A1188E2E60C98D7234A5830286103A55745067B9D86B8A3CF9C7F90C11DE607FB1443
310
96D7B6A82D282E9A152AD114D5EF2CB866EEE831B8EEA07A7BB5A8D7D61A2BAAEB7FD5F70921FF497D00504B0304140006080800B670623BD9A3B367FE000000A00100003B0000006662782F38353834323741342D343835462D343034322D383541392D4331303331363839454531452F7265736F75726365732F636F7265
310
2E786D6C8D504B6E833010BD0A9A6D65B01D0201194711694FD00B586642AD043BF2A7EAF16B122AB5BB6E6646EFA3797AE2F8B5DC8A4FF4C1383B002B291468B59B8C9D0748F1420E501CA5F0CEC55F3228AC5A708015062966EFD27D83B4B3116DCCA875136EA00A012314FA968F0182FEC045952AC5AC08D7F2AEF455CD
310
58B232D3592745883E07289E4FD609D26370C96B0CA27AB252A464A64D63A6FCD35C0C7A904D73EE467EE664DCD58CD4ED4849D79C5A723ED1B7A61977AF2D6F45B59AA58866F9C9A83DAA8813484E6947182394BFB3BAA7FBBEDEBFD0434FA9A856F91F53BA4FFF342563E38E6F719FB60092E5200F428A6AED2BAF479979
310
AFDDCA6F504B010214000A0000080000B670623B3DEE336E79000000790000001B00000000000000000000000000000000006175746F6465736B2D64657369676E2D7061636B6167652E786D6C504B01021400140006080800B670623BD486FD9CA0000000F40000001300000000000000000000000000B20000005B436F6E
310
74656E745F54797065735D2E786D6C504B01021400140006080800B670623BCA089DFFEC0000007C010000080000000000000000000000000083010000636F72652E786D6C504B01021400140006080800B670623B55019EA25F0000007C000000070000000000000000000000000095020000636E782E786D6C504B010214
310
00140006080800B670623B68FC0B7272010000D40300000C00000000000000000000000000190300006662782F636F72652E786D6C504B01021400140006080800B670623B0F71DDB67E0000009D0000000B00000000000000000000000000B50400006662782F636E782E786D6C504B01021400140006080800B670623BE1
310
34B4FB280100001202000031000000000000000000000000005C0500006662782F38353834323741342D343835462D343034322D383541392D4331303331363839454531452F636F72652E786D6C504B01021400140006080800B670623B1B8617914E010000330300003000000000000000000000000000D3060000666278
310
2F38353834323741342D343835462D343034322D383541392D4331303331363839454531452F636E782E786D6C504B01021400140006080800B670623B5933D422630500003B10000034000000000000000000000000006F0800006662782F38353834323741342D343835462D343034322D383541392D4331303331363839
310
454531452F6F626A656374732E786D6C504B01021400140006080000B670623B0000000000000000000000003500000000000000000000000000240E00006662782F38353834323741342D343835462D343034322D383541392D4331303331363839454531452F76657274696365732E62696E504B01021400140006080800
310
B670623BF270F13306000000040000003600000000000000000000000000770E00006662782F38353834323741342D343835462D343034322D383541392D4331303331363839454531452F747269616E676C65732E62696E504B01021400140006080000B670623B0000000000000000000000003700000000000000000000
310
000000D10E00006662782F38353834323741342D343835462D343034322D383541392D4331303331363839454531452F617474726962757465732E62696E504B01021400140006080800B670623B08DA0BD190000000410100003600000000000000000000000000260F00006662782F38353834323741342D343835462D34
310
3034322D383541392D4331303331363839454531452F6469726563746F72792E786D6C504B01021400140006080800B670623BD9A3B367FE000000A00100003B000000000000000000000000000A1000006662782F38353834323741342D343835462D343034322D383541392D4331303331363839454531452F7265736F75
310
726365732F636F72652E786D6C504B0506000000000E000E0080040000611100000000
  0
XRECORD
  5
113
102
{ACAD_REACTORS
330
110
102
}
330
110
100
AcDbXrecord
280
     1
270
     1
271
     1
  0
XRECORD
  5
114
102
{ACAD_REACTORS
330
110
102
}
330
110
100
AcDbXrecord
280
     1
270
     1
271
     1
  0
CELLSTYLEMAP
  5
187C
102
{ACAD_REACTORS
330
104
102
}
330
104
100
AcDbCellStyleMap
 90
        3
300
CELLSTYLE
  1
TABLEFORMAT_BEGIN
 90
        5
170
     1
 91
        0
 92
    32768
 62
   257
 93
        1
300
CONTENTFORMAT
  1
CONTENTFORMAT_BEGIN
 90
        0
 91
        0
 92
      512
 93
        0
300

 40
0.0
140
1.0
 94
        5
 62
     0
340
11
144
0.25
309
CONTENTFORMAT_END
171
     1
301
MARGIN
  1
CELLMARGIN_BEGIN
 40
0.06
 40
0.06
 40
0.06
 40
0.06
 40
0.18
 40
0.18
309
CELLMARGIN_END
 94
        6
 95
        1
302
GRIDFORMAT
  1
GRIDFORMAT_BEGIN
 90
        0
 91
        1
 62
     0
 92
       -2
340
0
 93
        0
 40
0.045
309
GRIDFORMAT_END
 95
        2
302
GRIDFORMAT
  1
GRIDFORMAT_BEGIN
 90
        0
 91
        1
 62
     0
 92
       -2
340
0
 93
        0
 40
0.045
309
GRIDFORMAT_END
 95
        4
302
GRIDFORMAT
  1
GRIDFORMAT_BEGIN
 90
        0
 91
        1
 62
     0
 92
       -2
340
0
 93
        0
 40
0.045
309
GRIDFORMAT_END
 95
        8
302
GRIDFORMAT
  1
GRIDFORMAT_BEGIN
 90
        0
 91
        1
 62
     0
 92
       -2
340
0
 93
        0
 40
0.045
309
GRIDFORMAT_END
 95
       16
302
GRIDFORMAT
  1
GRIDFORMAT_BEGIN
 90
        0
 91
        1
 62
     0
 92
       -2
340
0
 93
        0
 40
0.045
309
GRIDFORMAT_END
 95
       32
302
GRIDFORMAT
  1
GRIDFORMAT_BEGIN
 90
        0
 91
        1
 62
     0
 92
       -2
340
0
 93
        0
 40
0.045
309
GRIDFORMAT_END
309
TABLEFORMAT_END
  1
CELLSTYLE_BEGIN
 90
        1
 91
        1
300
_TITLE
309
CELLSTYLE_END
300
CELLSTYLE
  1
TABLEFORMAT_BEGIN
 90
        5
170
     1
 91
        0
 92
        0
 62
   257
 93
        1
300
CONTENTFORMAT
  1
CONTENTFORMAT_BEGIN
 90
        0
 91
        0
 92
      512
 93
        0
300

 40
0.0
140
1.0
 94
        5
 62
     0
340
11
144
0.18
309
CONTENTFORMAT_END
171
     1
301
MARGIN
  1
CELLMARGIN_BEGIN
 40
0.06
 40
0.06
 40
0.06
 40
0.06
 40
0.18
 40
0.18
309
CELLMARGIN_END
 94
        6
 95
        1
302
GRIDFORMAT
  1
GRIDFORMAT_BEGIN
 90
        0
 91
        1
 62
     0
 92
       -2
340
0
 93
        0
 40
0.045
309
GRIDFORMAT_END
 95
        2
302
GRIDFORMAT
  1
GRIDFORMAT_BEGIN
 90
        0
 91
        1
 62
     0
 92
       -2
340
0
 93
        0
 40
0.045
309
GRIDFORMAT_END
 95
        4
302
GRIDFORMAT
  1
GRIDFORMAT_BEGIN
 90
        0
 91
        1
 62
     0
 92
       -2
340
0
 93
        0
 40
0.045
309
GRIDFORMAT_END
 95
        8
302
GRIDFORMAT
  1
GRIDFORMAT_BEGIN
 90
        0
 91
        1
 62
     0
 92
       -2
340
0
 93
        0
 40
0.045
309
GRIDFORMAT_END
 95
       16
302
GRIDFORMAT
  1
GRIDFORMAT_BEGIN
 90
        0
 91
        1
 62
     0
 92
       -2
340
0
 93
        0
 40
0.045
309
GRIDFORMAT_END
 95
       32
302
GRIDFORMAT
  1
GRIDFORMAT_BEGIN
 90
        0
 91
        1
 62
     0
 92
       -2
340
0
 93
        0
 40
0.045
309
GRIDFORMAT_END
309
TABLEFORMAT_END
  1
CELLSTYLE_BEGIN
 90
        2
 91
        1
300
_HEADER
309
CELLSTYLE_END
300
CELLSTYLE
  1
TABLEFORMAT_BEGIN
 90
        5
170
     1
 91
        0
 92
        0
 62
   257
 93
        1
300
CONTENTFORMAT
  1
CONTENTFORMAT_BEGIN
 90
        0
 91
        0
 92
      512
 93
        0
300

 40
0.0
140
1.0
 94
        2
 62
     0
340
11
144
0.18
309
CONTENTFORMAT_END
171
     1
301
MARGIN
  1
CELLMARGIN_BEGIN
 40
0.06
 40
0.06
 40
0.06
 40
0.06
 40
0.18
 40
0.18
309
CELLMARGIN_END
 94
        6
 95
        1
302
GRIDFORMAT
  1
GRIDFORMAT_BEGIN
 90
        0
 91
        1
 62
     0
 92
       -2
340
0
 93
        0
 40
0.045
309
GRIDFORMAT_END
 95
        2
302
GRIDFORMAT
  1
GRIDFORMAT_BEGIN
 90
        0
 91
        1
 62
     0
 92
       -2
340
0
 93
        0
 40
0.045
309
GRIDFORMAT_END
 95
        4
302
GRIDFORMAT
  1
GRIDFORMAT_BEGIN
 90
        0
 91
        1
 62
     0
 92
       -2
340
0
 93
        0
 40
0.045
309
GRIDFORMAT_END
 95
        8
302
GRIDFORMAT
  1
GRIDFORMAT_BEGIN
 90
        0
 91
        1
 62
     0
 92
       -2
340
0
 93
        0
 40
0.045
309
GRIDFORMAT_END
 95
       16
302
GRIDFORMAT
  1
GRIDFORMAT_BEGIN
 90
        0
 91
        1
 62
     0
 92
       -2
340
0
 93
        0
 40
0.045
309
GRIDFORMAT_END
 95
       32
302
GRIDFORMAT
  1
GRIDFORMAT_BEGIN
 90
        0
 91
        1
 62
     0
 92
       -2
340
0
 93
        0
 40
0.045
309
GRIDFORMAT_END
309
TABLEFORMAT_END
  1
CELLSTYLE_BEGIN
 90
        3
 91
        2
300
_DATA
309
CELLSTYLE_END
  0
ENDSEC
  0
SECTION
  2
ACDSDATA
 70
     2
 71
     8
  0
ACDSSCHEMA
 90
        0
  1
AcDb_Thumbnail_Schema
  2
AcDbDs::ID
280
    10
 91
        8
  2
Thumbnail_Data
280
    15
 91
        0
101
ACDSRECORD
 95
        0
 90
        1
  2
AcDbDs::TreatedAsObjectData
280
     1
291
     1
101
ACDSRECORD
 95
        0
 90
        2
  2
AcDbDs::Legacy
280
     1
291
     1
101
ACDSRECORD
  1
AcDbDs::ID
 90
        3
  2
AcDs:Indexable
280
     1
291
     1
101
ACDSRECORD
  1
AcDbDs::ID
 90
        4
  2
AcDbDs::HandleAttribute
280
     7
282
     1
  0
ACDSSCHEMA
 90
        1
  1
AcDbDs::TreatedAsObjectDataSchema
  2
AcDbDs::TreatedAsObjectData
280
     1
 91
        0
  0
ACDSSCHEMA
 90
        2
  1
AcDbDs::LegacySchema
  2
AcDbDs::Legacy
280
     1
 91
        0
  0
ACDSSCHEMA
 90
        3
  1
AcDbDs::IndexedPropertySchema
  2
AcDs:Indexable
280
     1
 91
        0
  0
ACDSSCHEMA
 90
        4
  1
AcDbDs::HandleAttributeSchema
  2
AcDbDs::HandleAttribute
280
     7
 91
        1
284
     1
  0
ACDSRECORD
 90
        0
  2
AcDbDs::ID
280
    10
320
22
  2
Thumbnail_Data
280
    15
 94
     1775
310
89504E470D0A1A0A0000000D49484452000001000000006F08030000003479EE6F00000300504C5445FFFFFFFFFFFFFFFFFF0000000000000000000000000000000000000000000000000000330000660000990000CC0000FF0033000033330033660033990033CC0033FF0066000066330066660066990066CC0066FF0099
310
000099330099660099990099CC0099FF00CC0000CC3300CC6600CC9900CCCC00CCFF00FF0000FF3300FF6600FF9900FFCC00FFFF3300003300333300663300993300CC3300FF3333003333333333663333993333CC3333FF3366003366333366663366993366CC3366FF3399003399333399663399993399CC3399FF33CC00
310
33CC3333CC6633CC9933CCCC33CCFF33FF0033FF3333FF6633FF9933FFCC33FFFF6600006600336600666600996600CC6600FF6633006633336633666633996633CC6633FF6666006666336666666666996666CC6666FF6699006699336699666699996699CC6699FF66CC0066CC3366CC6666CC9966CCCC66CCFF66FF0066
310
FF3366FF6666FF9966FFCC66FFFF9900009900339900669900999900CC9900FF9933009933339933669933999933CC9933FF9966009966339966669966999966CC9966FF9999009999339999669999999999CC9999FF99CC0099CC3399CC6699CC9999CCCC99CCFF99FF0099FF3399FF6699FF9999FFCC99FFFFCC0000CC00
310
33CC0066CC0099CC00CCCC00FFCC3300CC3333CC3366CC3399CC33CCCC33FFCC6600CC6633CC6666CC6699CC66CCCC66FFCC9900CC9933CC9966CC9999CC99CCCC99FFCCCC00CCCC33CCCC66CCCC99CCCCCCCCCCFFCCFF00CCFF33CCFF66CCFF99CCFFCCCCFFFFFF0000FF0033FF0066FF0099FF00CCFF00FFFF3300FF3333
310
FF3366FF3399FF33CCFF33FFFF6600FF6633FF6666FF6699FF66CCFF66FFFF9900FF9933FF9966FF9999FF99CCFF99FFFFCC00FFCC33FFCC66FFCC99FFCCCCFFCCFFFFFF00FFFF33FFFF66FFFF99FFFFCCFFFFFF0000000D0D0D1A1A1A2828283535354343435050505D5D5D6B6B6B787878868686939393A1A1A1AEAEAEBB
310
BBBBC9C9C9D6D6D6E4E4E4F1F1F1FFFFFF000000000000000000000000000000000000000000000000000000000000AD4AB4E4000001874944415478DAED9A5D76823010466727EC7F1DEEC1279E66253DFC44C2184445B43373EF436BA9E7B4DC7CF9484011000000000000008093D0178829E094B72200010840802F01CF
310
B43F09889E80F16BFD9BF1501601F624E7F0ABE6EB804629E44940D578D3F86B350D1208A8227F1BFB54024A026EA33F1741CA0E905C1DF068A79C76296CAF83AC041190A804D90CE54940F69BA29016FD0E21DAEFDFFF15042000010838FCAF9D53F02400010840800B018D6E6BF6DDAB45E82D014F557BCCAB4039A5C689
310
1DD9D1784AC0F23464FD86437B3A8F0B21930913F77ECD9E1D675360B3042B015DD75D8617DD401F6C0A5801CBE14580C875FC69B4D0EFF5A1C70498DBE05335AE045C86639300712EE03EF1523D2A905602CADC2FDF7D4F01AD3E1BD44E801D5F7B91705E82AD459E591A1CBBAFE92201BABDC0D3DD21961053A0CCF9D580
310
CFAF630BD83E543F25CD2240DFDF1F4549C0E79FE47043C4E166A8F51909128000042000010840402C01D93F230400000000000000000000000000000000BFE50F34C868E07A0DF3600000000049454E44AE4260825A8901B183D6B9BB013C8723F503B04C71FEE435775DC60592C03FCB025A2D008D5B4593CA27F6CC7601
310
5573CDFCA23C54A38AA81840BCE3ED1890DB3E6AD6D37557829921BDE4F2E078F9450BE32E00F057DE239B8B0E7E00ACBA9AEC0FB43BA9E211C0FC318B3D27927CE6CF028C6AD0DA40BFAA039C4E88E48A834339AD1D0076CFE681E2788AAB17C09E476BFF1F0D372E50CD0A780034D6AE0700852FB56ED82802005C000000
310
000000000000000000000000C099EDF6BE75162184104208218410420821E4441F2D27563091CF77FC0000000049454E44AE4260827649051B0016AB0000000049454E44AE426082A05B30600000000049454E44AE42608220088220088220088266D52F47E130AA07C8AB310000000049454E44AE4260820550000550C0A1
310
02667F60821042082184104208218410420821841042082184104208218490F3F10FCD11021718818B870000000049454E44AE426082B97FF4E2F2E797C36D44F00B2B07356A9C7704D4A4F7DB28B90306763B06B23B41966476076B372D20D17CDC3C9B2958D8B82B9EAB3E7CDE460242D965E3B225A00B0AEA37902FED24
310
D0C09D040C49532EEC85E077FFB7857B700289C2CB5A594ACF5A5BF77E8C8043F9C7A83165A1C15F52B830F22B5629BBD28717CF4507C1504A4061F368DCBEEE1D607C68E886001FDD51290E5EBBC2CE7C0097F74370F82F135B05F4150B179C85240AF82A01FF0132B6F839639665360000000049454E44AE426082
  0
ENDSEC
  0
EOF
